<?xml version="1.0" standalone="no"?>
<!DOCTYPE svg PUBLIC "-//W3C//DTD SVG 1.1//EN" "http://www.w3.org/Graphics/SVG/1.1/DTD/svg11.dtd" >
<svg xmlns="http://www.w3.org/2000/svg" xmlns:xlink="http://www.w3.org/1999/xlink" version="1.1">
<metadata>
Created by FontForge 20161003 at Fri Aug  3 07:33:32 2018
 By www-data
Typeface (c) The Monotype Corporation plc. Data (c) The Monotype Corporation plc, Type Solutions Inc 1990-1992. All rights reserved. Portions (c) 1992 Microsoft Corp.
</metadata>
<defs>
<font id="belli" horiz-adv-x="683" >
  <font-face 
    font-family="belli"
    font-weight="400"
    font-style="italic"
    font-stretch="normal"
    units-per-em="2048"
    panose-1="2 3 6 3 6 5 10 9 2 3"
    ascent="1638"
    descent="-410"
    x-height="853"
    cap-height="1301"
    bbox="-416 -554 2233 1869"
    underline-thickness="102"
    underline-position="-358"
    slope="-13"
    unicode-range="U+0020-F002"
  />
<missing-glyph horiz-adv-x="1536" 
d="M256 0v1280h1024v-1280h-1024zM288 32h960v1216h-960v-1216z" />
    <glyph glyph-name=".notdef" horiz-adv-x="1536" 
d="M256 0v1280h1024v-1280h-1024zM288 32h960v1216h-960v-1216z" />
    <glyph glyph-name="glyph1" horiz-adv-x="0" 
 />
    <glyph glyph-name="glyph2" horiz-adv-x="501" 
 />
    <glyph glyph-name="space" unicode=" " horiz-adv-x="501" 
 />
    <glyph glyph-name="exclam" unicode="!" horiz-adv-x="619" 
d="M362 294q-16 0 -16 18l2 10q27 90 68.5 338.5t57.5 401.5q17 172 48.5 209.5t71.5 37.5q42 0 65.5 -27.5t23.5 -53.5q0 -45 -77 -268l-151 -436q-73 -213 -80 -221.5t-13 -8.5zM316 149q35 0 60.5 -24.5t25.5 -60.5q0 -35 -25 -60t-61 -25q-35 0 -60 25t-25 60t25 60
t60 25z" />
    <glyph glyph-name="quotedbl" unicode="&#x22;" horiz-adv-x="853" 
d="M367 803l31 296q17 169 51 228.5t107 59.5q76 0 76 -71q0 -42 -83 -218l-139 -295h-43zM734 803l29 292q12 122 26 175.5t49.5 85t87.5 31.5q73 0 73 -70q0 -61 -77 -221l-141 -293h-47z" />
    <glyph glyph-name="numbersign" unicode="#" horiz-adv-x="1365" 
d="M227 949h335l88 416h87l-88 -416h455l87 416h88l-88 -416h213v-88h-230l-85 -406h315v-88h-333l-85 -414h-89l87 414h-458l-84 -414h-89l86 414h-212v88h231l85 406h-316v88zM630 861l-85 -404h457l85 404h-457z" />
    <glyph glyph-name="dollar" unicode="$" horiz-adv-x="1003" 
d="M765 1082l42 122h52l-37 -122q115 -24 165.5 -83t50.5 -125q0 -38 -22.5 -64.5t-57.5 -26.5t-56 22.5t-21 56.5q0 44 50 68q25 11 25 21q0 20 -33.5 45.5t-115.5 42.5l-120 -399q158 -156 189 -230t31 -136q0 -135 -107.5 -229.5t-248.5 -94.5q-31 0 -75 3l-78 -248h-59
l79 257q-98 16 -170.5 89t-72.5 155q0 53 29 84t65 31q33 0 55.5 -26t22.5 -63q0 -40 -49 -78q-24 -19 -24 -30q0 -29 44 -67.5t113 -55.5l160 520q-168 157 -168 296q0 129 102 198t207 69q11 0 33 -2zM752 1041q-120 0 -171.5 -50.5t-51.5 -110.5q0 -90 114 -193zM489 -9
q35 -3 57 -3q97 0 166 65.5t69 154.5q0 127 -144 267z" />
    <glyph glyph-name="percent" unicode="%" horiz-adv-x="1515" 
d="M1541 1336l-1239 -1363h-75l1240 1363h74zM256 927q0 180 111 294.5t254 114.5q117 0 186.5 -83.5t69.5 -200.5q0 -163 -115.5 -279.5t-247.5 -116.5q-111 0 -184.5 75.5t-73.5 195.5zM369 865q0 -71 36 -119t100 -48q100 0 177.5 140.5t77.5 294.5q0 71 -33 117t-96 46
q-116 0 -189 -143t-73 -288zM885 249q0 166 111.5 285t253.5 119q108 0 183 -77t75 -201q0 -176 -114 -289t-257 -113q-125 0 -188.5 87t-63.5 189zM1000 180q0 -77 35 -120.5t95 -43.5q115 0 190 144.5t75 296.5q0 57 -33.5 106t-91.5 49q-108 0 -189 -132t-81 -300z" />
    <glyph glyph-name="ampersand" unicode="&#x26;" horiz-adv-x="1664" 
d="M890 1100q-25 80 -74.5 119.5t-123.5 39.5q-105 0 -157 -69t-52 -160q0 -37 13 -73.5t38 -73.5q194 -8 194 -127q0 -26 -23.5 -42t-55.5 -16t-55 15t-65 67q-25 32 -52 32q-53 0 -102.5 -75t-49.5 -158q0 -192 166.5 -314t424.5 -122q164 0 281.5 34.5t203 131.5
t85.5 223q0 127 -89 226.5t-233 99.5q-104 0 -173.5 -60t-69.5 -135q0 -69 36 -118.5t87 -49.5q28 0 41.5 5.5t13.5 15.5t-21 27q-34 29 -34 57q0 36 30 57t60 21q35 0 69.5 -27t34.5 -79q0 -60 -49 -99t-112 -39q-86 0 -144 72.5t-58 159.5q0 97 83 188q82 90 268 90
q57 0 127 -4q70 -5 112 -5q116 0 195 60t79 136q0 74 -53.5 127.5t-111.5 53.5q-35 0 -35 -16q0 -7 9 -25q8 -18 8 -43q0 -33 -28 -56t-62 -23q-35 0 -61.5 25.5t-26.5 65.5q0 54 40.5 88t104.5 34q115 0 195 -73.5t80 -196.5q0 -99 -50.5 -166.5t-121 -97t-196.5 -40.5
q103 -122 103 -288q0 -221 -179 -370t-464 -149q-296 0 -482.5 154.5t-186.5 371.5q0 124 69 215.5t206 151.5q-37 53 -55.5 105t-18.5 103q0 109 72 192t186 83q96 0 159 -58.5t63 -140.5q0 -26 -12 -58z" />
    <glyph glyph-name="quotesingle" unicode="'" horiz-adv-x="448" 
d="M342 803l31 296q12 121 26 173t48.5 83.5t81.5 31.5q79 0 79 -71q0 -40 -84 -218l-138 -295h-44z" />
    <glyph glyph-name="parenleft" unicode="(" horiz-adv-x="640" 
d="M175 112q0 186 32.5 338t89 287.5t139.5 255t195.5 229.5t144.5 126t93 16q28 0 28 -7q0 -5 -19 -17q-74 -48 -248 -233t-276 -450t-102 -531q0 -142 29 -286.5t80 -251.5t60 -119l4 -6q0 -7 -17 -7q-54 0 -67 8t-63 124t-76.5 262.5t-26.5 261.5z" />
    <glyph glyph-name="parenright" unicode=")" horiz-adv-x="640" 
d="M610 709q0 -151 -25.5 -302.5t-81.5 -290t-146.5 -276.5t-217 -254.5t-145.5 -123t-78 -6.5q-28 0 -28 8l19 17q73 47 247.5 232t276.5 450t102 532q0 141 -29 285.5t-80 251.5t-60 119l-4 7q0 6 17 6q54 0 67 -8t63 -123.5t76.5 -262.5t26.5 -261z" />
    <glyph glyph-name="asterisk" unicode="*" horiz-adv-x="1024" 
d="M705 1371q59 0 59 -81q0 -42 -9 -118l-19 -164l-1 -8q0 -14 9 -14q5 0 28 36q148 229 220 229q16 0 31.5 -12t15.5 -32q0 -21 -9 -33.5t-96 -77.5t-135 -97q-29 -20 -29 -26q0 -12 16 -12q5 0 12 2q25 8 58 12l196 26q92 -3 92 -58q0 -50 -57 -50q-26 0 -58 5l-107 16
q-96 9 -119 18q-9 4 -15 4q-15 0 -15 -10l24 -20q11 -8 113 -83t118.5 -100t16.5 -46q0 -18 -17 -31.5t-37 -13.5q-66 0 -225 249l-13 14q-8 0 -8 -16q0 -5 1 -12q2 -8 13.5 -127t11.5 -162q0 -64 -50 -64q-58 0 -58 74q0 35 20 151t25 130q3 7 3 12q0 12 -8 12
q-5 0 -45 -56q-98 -137 -137.5 -178t-63.5 -41q-21 0 -34.5 16t-13.5 33q0 20 11 36t86 80t130 99q34 22 34 28q0 7 -9 7l-7 -1q-7 -2 -131 -23t-159 -21q-75 0 -75 58q0 26 21 40.5t46 14.5q50 0 286 -38q10 -5 18 -5q13 0 13 9q0 6 -22 20q-16 10 -56 40q-79 61 -146 106
t-67 86q0 20 16 34t35 14q27 0 60.5 -34t185.5 -216q11 -17 19 -17q9 0 9 11l-1 8q-7 20 -30 128.5t-23 161.5q0 34 15.5 56t36.5 22z" />
    <glyph glyph-name="plus" unicode="+" horiz-adv-x="1365" 
d="M265 571h492v494h88v-494h495v-88h-495v-489h-88v489h-492v88z" />
    <glyph glyph-name="comma" unicode="," horiz-adv-x="384" 
d="M208 -26q-136 0 -136 107q0 49 33.5 76.5t74.5 27.5q63 0 100 -53.5t37 -124.5q0 -144 -107 -241.5t-158 -97.5q-19 0 -19 20q0 12 19 22q163 86 163 211q0 11 -1.5 24t-5.5 29z" />
    <glyph glyph-name="hyphen" unicode="-" horiz-adv-x="789" 
d="M222 484l570 -3q25 0 25 -14l-3 -15l-20 -66q-5 -15 -9 -23t-28 -8l-563 2q-32 0 -32 12q0 5 7 26l21 65q7 24 32 24z" />
    <glyph glyph-name="hyphen" unicode="&#xad;" horiz-adv-x="789" 
d="M222 484l570 -3q25 0 25 -14l-3 -15l-20 -66q-5 -15 -9 -23t-28 -8l-563 2q-32 0 -32 12q0 5 7 26l21 65q7 24 32 24z" />
    <glyph glyph-name="period" unicode="." horiz-adv-x="448" 
d="M273 176q41 0 70 -29t29 -69q0 -41 -29 -70t-70 -29t-69.5 29t-28.5 70q0 42 29 70t69 28z" />
    <glyph glyph-name="slash" unicode="/" horiz-adv-x="1024" 
d="M1150 1426h93l-1042 -1463h-93z" />
    <glyph glyph-name="zero" unicode="0" horiz-adv-x="1003" 
d="M176 406q0 170 73 325t200.5 254t289.5 99q169 0 261.5 -127.5t92.5 -289.5q0 -254 -160 -473t-412 -219q-175 0 -260 125t-85 306zM320 267q0 -111 52 -181.5t151 -70.5q180 0 303 274.5t123 504.5q0 106 -52 176.5t-151 70.5q-73 0 -147 -50.5t-144 -178t-102.5 -295
t-32.5 -250.5z" />
    <glyph glyph-name="one" unicode="1" horiz-adv-x="1003" 
d="M574 122q0 -45 37.5 -64t68.5 -19q43 -1 43 -18q0 -20 -30 -20q-26 0 -101 5q-48 3 -147 3q-55 0 -82 -2q-64 -5 -84 -5q-31 0 -31 19q0 18 36 19q62 2 98.5 35t52.5 82.5t100 324.5l105 336q17 51 17 91q0 34 -33 58.5t-95 24.5q-38 0 -38 19q0 21 33 21q225 3 295 50
q18 12 28 12q14 0 14 -18q0 -7 -77 -256l-185 -597q-25 -78 -25 -101z" />
    <glyph glyph-name="two" unicode="2" horiz-adv-x="1003" 
d="M791 -1q-62 -2 -306 -2l-172 -2l-138 1l-60 -3q-33 3 -33 15q0 10 53 40q64 35 300.5 204.5t354 320.5t117.5 278q0 87 -53.5 138t-145.5 51q-147 0 -251.5 -126.5t-104.5 -234.5q0 -40 30.5 -69t65.5 -29q47 0 92.5 29t68.5 66q30 47 46 47q18 0 18 -17q0 -34 -83 -106
t-182 -72q-76 0 -116.5 48.5t-40.5 118.5q0 137 154.5 263.5t358.5 126.5q146 0 225.5 -73t79.5 -173q0 -141 -113.5 -270.5t-441.5 -324.5q-137 -81 -184 -112l267 2q138 1 161.5 5t63.5 31.5t65 65.5q31 49 49 49q20 0 20 -18q0 -10 -34 -60q-32 -47 -59 -92
q-62 -104 -72 -116z" />
    <glyph glyph-name="three" unicode="3" horiz-adv-x="1003" 
d="M673 582q137 -1 190.5 -70.5t53.5 -151.5q0 -146 -122.5 -266t-333.5 -120q-164 0 -247.5 72.5t-83.5 168.5q0 39 24 68t60 29q35 0 57 -22t22 -50q0 -15 -13 -43q-15 -36 -15 -58q0 -52 52 -89.5t122 -37.5q134 0 231 134t97 260q0 48 -30.5 95t-94.5 47q-41 0 -104 -34
q-45 -24 -55 -24q-19 0 -19 20q0 19 54 38q237 110 289 185.5t52 144.5q0 76 -43 119t-121 43q-96 0 -163.5 -67.5t-67.5 -159.5q0 -42 16 -63.5t47 -21.5q38 0 85 40q29 25 39 25q16 0 16 -15q0 -31 -66.5 -74t-120.5 -43q-55 0 -91.5 40.5t-36.5 92.5q0 116 107.5 202
t265.5 86q131 0 204.5 -67t73.5 -154q0 -70 -53 -136t-277 -143z" />
    <glyph glyph-name="four" unicode="4" horiz-adv-x="1003" 
d="M785 460h142q53 0 88 36t44 82q5 25 20 25q21 0 21 -19q0 -23 -15 -60l-88 -282q-11 -17 -21 -17q-17 0 -17 22q0 6 2 15q7 24 7 49q0 35 -12.5 59t-34 35t-58.5 11l-90 2l-60 -201q-18 -52 -18 -83t24.5 -61.5t87.5 -34.5q45 -3 45 -21q0 -19 -39 -19q-22 0 -92 6
q-44 4 -98 4q-47 0 -89 -3q-90 -6 -102 -6q-58 0 -58 19t50 21q46 2 73 20.5t43 50t60 185.5q29 103 39 123l-22 -1l-480 1q1 14 15 42q32 25 181 160q215 194 386 328l181 140q11 6 47 6q28 0 28 -17q0 -19 -190 -617zM211 460q88 1 131 1l310 -1l90 295q57 185 64 204
q-137 -89 -595 -499z" />
    <glyph glyph-name="five" unicode="5" horiz-adv-x="1003" 
d="M593 1084q125 -32 218 -32q153 0 236 95q34 39 44 39q20 0 20 -21q0 -23 -54 -93t-130.5 -101.5t-212.5 -31.5q-79 0 -131 9q-85 -194 -127 -306q57 37 110.5 55.5t103.5 18.5q130 0 213.5 -84.5t83.5 -215.5q0 -157 -131.5 -296.5t-353.5 -139.5q-163 0 -248.5 79.5
t-85.5 165.5q0 93 88 93q74 0 74 -72q0 -18 -13 -52q-13 -31 -13 -50q0 -41 43 -81.5t121 -40.5q158 0 265.5 166.5t107.5 315.5q0 80 -51 125.5t-116 45.5q-41 0 -88 -21.5t-73 -46.5t-64 -81q-40 -59 -56 -59q-20 0 -20 20q0 9 6 20z" />
    <glyph glyph-name="six" unicode="6" horiz-adv-x="1003" 
d="M403 559q126 122 286 122q144 0 234 -87t90 -226q0 -156 -128 -273.5t-301 -117.5q-165 0 -267 115.5t-102 300.5q0 248 178.5 470.5t460.5 222.5q131 0 207.5 -58t76.5 -142q0 -101 -83 -101q-33 0 -54 19t-21 46q0 17 13 46q14 32 14 49q0 42 -45 69.5t-101 27.5
q-90 0 -177.5 -56t-153 -151.5t-127.5 -275.5zM356 288q0 -116 65.5 -194t162.5 -78q124 0 196.5 117.5t72.5 258.5q0 102 -56 169t-151 67q-117 0 -203.5 -92.5t-86.5 -247.5z" />
    <glyph glyph-name="seven" unicode="7" horiz-adv-x="1003" 
d="M1109 1058q-3 -22 -13 -42q-199 -216 -294.5 -358.5t-167 -336t-88.5 -255.5q-28 -104 -93 -104q-27 0 -49 18t-22 47q0 95 105.5 280.5t470.5 617.5l-296 -1l-171 1q-91 0 -153 -68q-26 -28 -38 -28q-18 0 -18 16q0 6 85 159l57 111q21 42 31 42q17 0 17 -19
q0 -48 22.5 -64t82.5 -16l31 1l235 -1h266z" />
    <glyph glyph-name="eight" unicode="8" horiz-adv-x="1003" 
d="M757 567q179 -102 179 -255q0 -136 -119 -236.5t-329 -100.5q-165 0 -240 77.5t-75 168.5q0 97 78.5 174t268.5 141q-77 55 -115.5 115.5t-38.5 125.5q0 118 115.5 212t274.5 94q135 0 216.5 -67.5t81.5 -161.5q0 -100 -74 -171.5t-223 -115.5zM711 593
q126 44 188.5 110.5t62.5 156.5q0 83 -60 130.5t-154 47.5q-119 0 -194 -60t-75 -144q0 -41 23.5 -78.5t84.5 -79.5t124 -83zM561 508q-133 -47 -209.5 -126.5t-76.5 -172.5q0 -85 64 -138t169 -53q116 0 203.5 71.5t87.5 164.5q0 70 -55 127.5t-183 126.5z" />
    <glyph glyph-name="nine" unicode="9" horiz-adv-x="1003" 
d="M846 501q-134 -118 -280 -118q-155 0 -242 86.5t-87 217.5q0 156 125 276.5t299 120.5q167 0 270 -113t103 -305q0 -253 -178.5 -479t-462.5 -226q-141 0 -213.5 58.5t-72.5 138.5q0 103 85 103q31 0 51.5 -20t20.5 -47q0 -15 -16 -47q-13 -25 -13 -42q0 -50 48 -76
t111 -26q76 0 166 56t166 172.5t120 269.5zM399 658q0 -108 64 -165.5t139 -57.5q115 0 204.5 91t89.5 237q0 126 -66 203t-166 77q-116 0 -190.5 -113t-74.5 -272z" />
    <glyph glyph-name="colon" unicode=":" horiz-adv-x="363" 
d="M313 746q40 0 69 -28t29 -70q0 -41 -29 -69.5t-69 -28.5t-68.5 28.5t-28.5 69.5t28.5 69.5t68.5 28.5zM177 172q39 0 68.5 -28t29.5 -70q0 -40 -29 -69t-69 -29q-41 0 -69.5 29t-28.5 69q0 41 29 69.5t69 28.5z" />
    <glyph glyph-name="semicolon" unicode=";" horiz-adv-x="384" 
d="M315 758q39 0 68 -28t29 -69t-28.5 -69.5t-68.5 -28.5t-68.5 29t-28.5 69t28.5 68.5t68.5 28.5zM207 -29q-135 15 -135 110q0 44 28.5 72.5t76.5 28.5q61 0 99 -53.5t38 -116.5q0 -145 -102.5 -243t-154.5 -98q-22 0 -22 17q0 10 36 32q143 86 143 200q0 19 -7 51z" />
    <glyph glyph-name="less" unicode="&#x3c;" horiz-adv-x="1365" 
d="M1339 35l-1071 455v79l1071 453v-96l-955 -396l955 -398v-97z" />
    <glyph glyph-name="equal" unicode="=" horiz-adv-x="1365" 
d="M267 808h1072v-88h-1072v88zM267 345h1072v-89h-1072v89z" />
    <glyph glyph-name="greater" unicode="&#x3e;" horiz-adv-x="1365" 
d="M268 1022l1071 -455v-79l-1071 -453v96l955 396l-955 398v97z" />
    <glyph glyph-name="question" unicode="?" horiz-adv-x="811" 
d="M670 1370q147 0 223.5 -76.5t76.5 -196.5q0 -96 -50.5 -182t-128 -141.5t-259.5 -146.5q-133 -67 -160 -101q-27 -35 -27 -72q0 -55 42 -89.5t102 -34.5q68 0 131 33q17 9 27 9q19 0 19 -17q0 -22 -54 -43.5t-126 -21.5q-83 0 -139 52.5t-56 127.5q0 92 64 163
q64 70 252 183q266 159 266 323q0 83 -51 135.5t-155 52.5q-82 0 -142 -40.5t-60 -88.5q0 -26 36 -54q41 -31 41 -69q0 -31 -21.5 -52.5t-54.5 -21.5q-41 0 -72.5 33.5t-31.5 89.5q0 93 89.5 169.5t218.5 76.5zM421 152q35 0 61.5 -25t26.5 -63q0 -36 -25.5 -61.5
t-62.5 -25.5q-36 0 -61.5 25.5t-25.5 61.5q0 38 26 63t61 25z" />
    <glyph glyph-name="at" unicode="@" horiz-adv-x="1877" 
d="M1480 958l-117 -399q-93 -318 -93 -378q0 -30 20 -54t56 -24q81 0 183.5 80.5t171 240.5t68.5 332q0 266 -180.5 440.5t-467.5 174.5q-236 0 -430.5 -124t-311 -350.5t-116.5 -482.5q0 -350 220.5 -572.5t556.5 -222.5q201 0 369 77.5t273.5 203.5t167.5 272h58
q-85 -273 -327 -443.5t-537 -170.5q-380 0 -627.5 253t-247.5 629q0 413 273.5 697.5t683.5 284.5q319 0 511 -194t192 -493q0 -279 -158.5 -491.5t-391.5 -212.5q-77 0 -116 35t-39 104q0 54 18 145q-230 -285 -394 -285q-81 0 -131 70.5t-50 164.5q0 136 85.5 306
t222.5 281.5t245 111.5q69 0 111.5 -34.5t58.5 -103.5l33 110zM1129 917q-131 0 -267.5 -236.5t-136.5 -384.5q0 -57 31.5 -101t84.5 -44q95 0 207.5 121.5t159 268.5t46.5 229q0 62 -33 104.5t-92 42.5z" />
    <glyph glyph-name="A" unicode="A" horiz-adv-x="1301" 
d="M1375 1332l-135 -515l-132 -496q-26 -87 -26 -151q0 -115 124 -133q28 -4 28 -16q0 -20 -28 -20l-181 5l-166 -2l-98 1l-50 -2q-33 0 -33 20q0 18 27 20q101 11 143.5 76t132.5 391q-18 1 -296 1l-53 1q-53 0 -105 -64l-136 -173q-84 -108 -84 -172q0 -58 112 -62
q42 -1 42 -20q0 -12 -9 -14.5t-66 -2.5l-298 5l-69 -2q-21 0 -21 13q0 17 30 23q37 7 89 35.5t91.5 65t116.5 129.5l271 326l275 325q82 92 206 246q88 109 107 121q43 14 191 41zM996 560q41 142 83 285q48 177 66 228q10 31 10 55q0 19 -14 19q-16 0 -51 -35t-172 -199
l-201 -242q-64 -78 -64 -89q0 -19 27 -22l25 1z" />
    <glyph glyph-name="B" unicode="B" horiz-adv-x="1280" 
d="M976 685q167 -44 250.5 -126t83.5 -202q0 -94 -60.5 -186.5t-170 -136.5t-345.5 -44q-89 0 -225 7q-71 3 -114 3l-345 -12q-30 0 -30 20q0 14 27 16q120 8 164.5 40.5t79 119.5t143 489.5t108.5 507.5q0 40 -48 65.5t-106 30.5q-34 4 -34 22q0 16 22 16q5 0 13 -1
q190 -21 368 -21l247 3q161 0 263 -76q101 -76 101 -205q0 -131 -98 -213.5t-294 -116.5zM622 704h170q174 0 290.5 92t116.5 236q0 111 -59.5 166t-178.5 55q-128 0 -166.5 -26.5t-83 -160t-89.5 -362.5zM606 654q-1 -7 -32 -116q-92 -322 -92 -411q0 -47 41 -72t180 -25
q195 0 303 97.5t108 241.5q0 125 -91.5 209t-280.5 84q-49 0 -136 -8z" />
    <glyph glyph-name="C" unicode="C" horiz-adv-x="1237" 
d="M1366 1301l-16 -60q-57 -207 -71 -334q-3 -26 -22 -26q-10 0 -13 8.5t-5 50.5q-11 190 -99.5 269t-191.5 79q-128 0 -238.5 -96t-190 -295.5t-79.5 -428.5q0 -197 88 -310t227 -113q113 0 231.5 71.5t195.5 194.5q18 28 31 28q18 0 18 -18q0 -25 -70.5 -112t-208.5 -160
t-296 -73q-205 0 -319 147t-114 352q0 209 103 417.5t284.5 322t338.5 113.5q87 0 193 -49q68 -31 92 -31q40 0 87 53q15 17 28 17q17 0 17 -17z" />
    <glyph glyph-name="D" unicode="D" horiz-adv-x="1515" 
d="M344 1289q106 0 346 17q134 10 198 10q250 0 382 -73t214 -220.5t82 -351.5q0 -186 -87.5 -347t-279 -244t-483.5 -83l-279 7q-11 0 -81 -4q-105 -6 -183 -6q-39 0 -51 -1t-19 -1q-27 0 -27 18q0 14 40 23q92 22 128.5 46t52.5 73q187 773 187 937q0 68 -44 115.5
t-114 47.5q-46 0 -46 17q0 21 64 20zM885 1272q-99 0 -138.5 -57.5t-129.5 -452t-90 -560.5q0 -161 221 -161q171 0 306.5 83.5t218.5 268t83 347.5q0 217 -117.5 374.5t-353.5 157.5z" />
    <glyph glyph-name="E" unicode="E" horiz-adv-x="1387" 
d="M753 1243q-48 -117 -112 -390q-24 -102 -40 -145l67 -2q162 0 240 49t122 162q14 37 26 37q18 0 18 -21q0 -13 -6 -30q-11 -32 -51 -182.5t-49 -206.5q-26 -147 -30.5 -153.5t-16.5 -6.5q-18 0 -18 21l3 70q0 42 -21.5 103.5t-51.5 84t-95.5 26t-146.5 5.5
q-22 -100 -57 -222q-52 -183 -52 -241q0 -95 64 -130.5t186 -35.5q190 0 256 22.5t168.5 116t160.5 168.5q24 30 37 30q14 0 14 -20q0 -57 -127 -354l-46 1l-242 -3l-578 12q-64 0 -165 -7q-98 -7 -143 -7q-29 0 -29 18q0 15 27 20q120 20 157.5 56t90 206t120.5 443.5
t68 349.5q0 155 -161 155q-38 0 -38 17q0 22 30 22l1028 29q14 -67 17 -145q4 -118 6 -134q3 -24 3 -39q0 -20 -15 -20q-16 0 -27 28q-30 77 -80.5 144t-94.5 91.5t-141 24.5q-150 0 -275 -17z" />
    <glyph glyph-name="F" unicode="F" horiz-adv-x="1344" 
d="M604 658q-137 -457 -137 -519q0 -29 27 -60.5t93 -44.5q33 -6 39 -9t6 -14q0 -18 -28 -18q-20 0 -52 3q-195 14 -332 14l-132 -3q-30 0 -30 21q0 17 53 20q124 9 158 99.5t151.5 499t117.5 516.5q0 44 -40.5 69t-90.5 26q-35 0 -35 18q0 23 33 23l656 -10q131 0 222 -4
q80 -4 102 -4t70 3q2 -39 2 -57q0 -319 -31 -319q-22 0 -27 37q-11 78 -50.5 153.5t-73.5 102.5t-99 37.5t-250 10.5q-88 0 -134 -11q-60 -90 -170 -535q49 -1 90 -1q186 0 246 39t121 161q12 24 22 24q18 0 18 -23q0 -9 -4 -20q-21 -54 -131 -506q-9 -34 -25 -34
q-18 0 -18 18l1 6q10 50 10 96q0 197 -277 197q-24 0 -71 -2z" />
    <glyph glyph-name="G" unicode="G" horiz-adv-x="1493" 
d="M1239 74q-266 -88 -447 -88q-245 0 -411 151.5t-166 418.5q0 188 96 365.5t277 294.5t413 117q190 0 407 -115q24 -13 38 -13q19 0 43 27q20 24 32 24q17 0 17 -18q0 -6 -41 -166l-42 -179q-4 -23 -16 -23q-14 0 -20 12.5t-12 66.5q-15 130 -118.5 235.5t-267.5 105.5
q-156 0 -297 -117.5t-215.5 -313t-74.5 -345.5q0 -197 113 -342.5t266 -145.5q85 0 159.5 39t112.5 137t38 218q0 78 -37.5 107t-126.5 41q-23 3 -23 19q0 17 23 17q24 0 75 -4q42 -4 130 -4l269 -3q65 0 87 -4.5t22 -19.5q0 -16 -45 -19q-103 -8 -133.5 -68t-124.5 -408z
" />
    <glyph glyph-name="H" unicode="H" horiz-adv-x="1579" 
d="M581 687q93 -9 306 -9q300 0 398 3q90 329 90 439q0 52 -35 89.5t-116 37.5q-51 0 -51 22q0 19 28 19q13 0 31 -1q140 -9 383 -9l162 3q30 0 30 -19t-28 -21q-81 -7 -117.5 -22t-65 -58.5t-42 -90.5t-92.5 -375.5t-93.5 -408.5t-14.5 -130q0 -44 35 -79.5t82 -38.5
q52 -4 52 -21q0 -23 -37 -23l-194 6l-317 -7q-30 0 -30 20q0 16 25 18q101 9 143.5 54t96.5 277l60 263q-136 6 -359 6l-344 -1q-13 -72 -48 -211q-42 -165 -42 -228q0 -147 165 -157q39 -2 39 -19t-20 -17l-269 3l-308 -4q-31 0 -31 21q0 15 53 25q67 13 98 37t61.5 88.5
t79 259.5t95 405.5t46.5 267.5q0 81 -34.5 112.5t-116.5 38.5q-26 2 -26 18q0 20 28 20l331 -4l196 3q45 0 45 -23q0 -19 -28 -19q-58 0 -105 -20t-70.5 -57t-57.5 -183z" />
    <glyph glyph-name="I" unicode="I" horiz-adv-x="704" 
d="M908 1290q16 -7 16 -18q0 -17 -22 -19q-83 -8 -117 -31.5t-56 -72t-90.5 -296t-119 -459.5t-50.5 -252q0 -90 106 -99q46 -4 46 -23q0 -18 -38 -18l-348 6l-134 -3q-31 0 -31 18q0 17 48 24q89 12 125 50t62 149l101 389l90 351q36 142 36 164q0 102 -144 112
q-30 3 -30 21q0 12 9 15t50 3z" />
    <glyph glyph-name="J" unicode="J" horiz-adv-x="1003" 
d="M344 -17q-131 0 -197 75.5t-66 170.5q0 57 37.5 108t95.5 51q88 0 88 -79q0 -43 -35 -84q-33 -41 -40 -54t-7 -38q0 -51 36 -83t86 -32q51 0 103 27t90.5 78t70 146t92.5 325l97 378q37 148 37 197q0 45 -26 66t-102 33q-26 4 -26 19q0 18 23 18q19 0 51 -4q56 -6 285 -6
l175 3q31 0 31 -19q0 -18 -55 -25q-93 -11 -134.5 -68t-89.5 -260q-53 -219 -151 -566q-57 -205 -157 -282q-123 -95 -312 -95z" />
    <glyph glyph-name="K" unicode="K" horiz-adv-x="1323" 
d="M562 571q-29 -107 -56.5 -252.5t-27.5 -194.5q0 -62 100 -84q35 -8 35 -24q0 -10 -18.5 -13t-70.5 -3q-11 0 -69 3q-12 1 -156 1l-94 1l-77 -4q-27 0 -27 17q0 18 44 23t78.5 33t52.5 75.5t70 262.5l102 426q49 210 49 326q0 91 -104 94q-50 2 -50 20q0 11 13 18
q29 4 71 4l239 1l111 -2l99 2q32 0 32 -21q0 -15 -20 -15q-87 -4 -125.5 -36.5t-92 -208t-98.5 -389.5q142 84 362 269.5t245.5 219t25.5 73.5q0 63 -92 71q-23 2 -23 19t21 17l226 -3l70 3l51 -3l90 5q23 -6 23 -21t-18 -17q-96 -12 -217 -97.5t-502 -404.5
q107 -55 155 -129t65 -264q19 -217 61 -267.5t131 -55.5q56 -4 56 -22q0 -15 -22 -15q-7 0 -82 -4q-61 -3 -234 -3q-40 25 -55.5 77.5t-19.5 206.5q-9 357 -190 357q-41 0 -137 -72z" />
    <glyph glyph-name="L" unicode="L" horiz-adv-x="1344" 
d="M1232 -5l-217 -6l-674 12l-274 -3q-27 0 -27 16q0 11 10.5 16t61.5 13t99 45.5t70 82.5t91.5 289.5t103 393.5t33.5 227q0 90 -59 132t-125 48q-62 6 -62 23q0 21 30 21q10 0 31 -2t237 -2l198 -1l156 3q44 0 44 -18q0 -16 -46 -22q-84 -11 -122.5 -39t-57 -67.5
t-81.5 -278t-105.5 -429t-42.5 -254.5q0 -162 240 -162q161 0 251 30t150 86.5t183 206.5q15 18 24 18q16 0 16 -20q0 -17 -49.5 -149.5t-86.5 -209.5z" />
    <glyph glyph-name="M" unicode="M" horiz-adv-x="1813" 
d="M831 1296q3 -22 15 -155q22 -251 118 -813q106 128 348 493l308 463q154 9 173 9l104 -3l135 -4q33 -1 38.5 -6.5t5.5 -12.5q0 -18 -26 -19q-111 -3 -184.5 -90t-184 -474.5t-110.5 -508.5q0 -75 44 -105t102 -34q27 -2 27 -17q0 -20 -26 -20l-308 4q-102 0 -187 -4
q-31 -2 -47 -2q-31 0 -31 19q0 12 8.5 16.5t78.5 19.5q59 14 92 61t139 431t157 629q-144 -176 -617 -907q-47 -72 -72 -106q-58 -77 -70 -102q-20 -43 -33 -43q-7 0 -17 6q-102 877 -170 1123q-49 -108 -121 -364l-119 -425q-48 -169 -48 -211q0 -58 48.5 -77.5t74.5 -20.5
q72 -4 72 -25t-35 -21q-15 0 -49 2q-14 1 -303 1l-74 -1q-48 0 -48 19q0 18 30 20q38 2 101 26.5t88.5 52t49 92.5t92.5 313l110 396q41 149 41 199q0 42 -21 72.5t-48.5 42t-118.5 31.5q-19 4 -19 18q0 18 25 18l82 -4l143 1l99 -2h114z" />
    <glyph glyph-name="N" unicode="N" horiz-adv-x="1579" 
d="M718 1283q396 -731 552 -967q236 672 236 783q0 46 -24.5 84t-52.5 51.5t-74 18.5q-50 5 -50 22q0 7 6 12.5t63 6t173 3.5t241 3q28 0 28 -22q0 -14 -19 -16q-87 -10 -135 -48t-82.5 -115t-151.5 -461t-152 -520q-25 -96 -31.5 -109.5t-14.5 -13.5q-15 0 -24 31
q-13 40 -80 150l-286 500q-152 264 -190 321q-98 -274 -157 -492l-54 -197q-24 -86 -24 -126q0 -54 49.5 -91t125.5 -48q41 -6 41 -21q0 -18 -20 -18l-102 1l-142 -1l-234 1l-45 -1q-25 0 -25 18q0 15 48 18q122 9 179 66t143 349.5t133 504.5q21 96 30 122
q-82 108 -116 134.5t-121 40.5q-66 10 -66 26q0 19 55 19q22 0 120 -7q23 -2 117 -4q77 -2 133 -8z" />
    <glyph glyph-name="O" unicode="O" horiz-adv-x="1408" 
d="M970 1333q240 0 376.5 -150.5t136.5 -385.5q0 -303 -225.5 -560.5t-514.5 -257.5q-237 0 -376 170.5t-139 398.5q0 183 97 363.5t265 301t380 120.5zM1016 1286q-123 0 -256 -101t-228 -327.5t-95 -459.5q0 -155 68 -263t202 -108q143 0 269 116.5t215.5 352.5t89.5 428
q0 129 -64 245.5t-201 116.5z" />
    <glyph glyph-name="P" unicode="P" horiz-adv-x="1323" 
d="M607 609q-102 -372 -102 -459q0 -106 115 -116q65 -5 65 -21q0 -22 -37 -22q-48 0 -117 4q-66 4 -232 4l-149 3q-47 -3 -69 -3q-29 0 -29 21q0 19 50 22q81 5 130.5 49t86.5 165t118 454t81 400q0 56 -31 101.5t-95 48.5q-41 2 -41 18q0 19 27 19l231 -5l365 7
q231 0 351.5 -88.5t120.5 -234.5q0 -160 -146.5 -272t-472.5 -112q-108 0 -220 17zM619 650q98 -13 159 -13q234 0 346 111.5t112 251.5q0 94 -72 174.5t-215 80.5q-79 0 -168 -18q-94 -315 -162 -587z" />
    <glyph glyph-name="Q" unicode="Q" horiz-adv-x="1387" 
d="M609 -147q35 2 52 2q63 0 127 -21.5t168 -80.5q168 -94 236 -94q96 0 179 44.5t137 111.5q27 33 36 33q13 0 13 -15q0 -85 -121 -221.5t-285 -136.5q-65 0 -126 24.5t-100.5 56.5t-120.5 119q-129 138 -210 138q-64 0 -127 -75q-90 -107 -133.5 -137.5t-93.5 -30.5
q-24 0 -45 15.5t-21 46.5q0 97 214 173q117 41 228 109t172 131q-31 -1 -45 -1q-215 0 -361 117.5t-146 359.5q0 323 224.5 566t489.5 243q224 0 362 -149t138 -356q0 -139 -52 -276t-148.5 -252t-190 -182.5t-259.5 -151.5q-128 -65 -191 -110zM973 1289
q-220 0 -378 -300.5t-158 -543.5q0 -187 82.5 -271.5t178.5 -84.5q124 0 242.5 112.5t206 329.5t87.5 400q0 164 -76 261t-185 97z" />
    <glyph glyph-name="R" unicode="R" horiz-adv-x="1365" 
d="M607 666q-27 -66 -79 -262.5t-52 -263.5q0 -88 146 -98q30 -2 30 -18q0 -22 -37 -22q-30 0 -97 5q-50 3 -167 3q-115 0 -186 -3q-26 -1 -42 -1q-27 0 -27 16q0 17 43 22q58 6 84 24.5t43 59.5t82 290l115 447q50 199 50 273q0 49 -28.5 79.5t-112.5 47.5q-24 5 -24 19
q0 18 23 18q25 0 71 -3q50 -4 118 -4l351 4q245 0 349 -81q104 -82 104 -211q0 -124 -92.5 -216t-264.5 -125q107 -66 132.5 -135t25.5 -143q0 -35 -5 -69q-19 -138 -19 -177q0 -25 16.5 -42.5t36.5 -17.5q44 0 125 56q47 32 58 32q14 0 14 -15t-57.5 -56t-130.5 -78
t-144 -37q-51 0 -88.5 31.5t-37.5 94.5q0 45 18 127q23 102 23 178q0 115 -25 166t-62.5 69.5t-157.5 18.5q-30 0 -122 -3zM617 711q57 -3 86 -3q174 0 263.5 32t141.5 121.5t52 183.5q0 93 -70 152t-190 59q-64 0 -141 -10q-1 -10 -37 -111q-25 -70 -64 -224.5t-41 -199.5z
" />
    <glyph glyph-name="S" unicode="S" horiz-adv-x="1131" 
d="M286 137q-72 -37 -118 -84q-51 -50 -61 -50q-14 0 -14 11l3 9q29 47 68 161q114 334 149 334q17 0 17 -16t-9 -42q-15 -44 -15 -93q0 -144 105 -244t244 -100q107 0 171 63t64 147q0 90 -52.5 170.5t-238.5 271.5q-105 109 -134 173.5t-29 133.5q0 156 111 252t275 96
q174 0 282 -137q24 -31 32 -31q22 0 53 64q14 29 28 29q16 0 16 -18q0 -13 -5 -30q-17 -55 -49 -200q-34 -139 -42 -163t-24 -24q-17 0 -17 23q0 8 2 18q5 36 5 70q0 150 -75.5 253.5t-207.5 103.5q-89 0 -154 -55.5t-65 -143.5q0 -53 19.5 -101.5t47 -84.5t130.5 -143
q151 -157 204.5 -241t53.5 -173q0 -144 -106.5 -254t-284.5 -110q-226 0 -379 155z" />
    <glyph glyph-name="T" unicode="T" horiz-adv-x="1451" 
d="M1104 1240q-78 -202 -194.5 -634t-116.5 -486q0 -34 47 -53.5t186 -29.5q23 -2 23 -14q0 -28 -51 -28l-225 5l-368 -2q-42 0 -42 18q0 22 55 22q99 0 136.5 31t61.5 129l93 343l95 365l82 325q-61 12 -126 12q-140 0 -251.5 -73t-204.5 -186q-21 -25 -32 -25
q-16 0 -16 15q0 17 45.5 125t98.5 196l620 -10l483 12q18 0 62 -2l14 -211q7 -73 7 -127q0 -24 -20 -24q-11 0 -14 14q-61 301 -355 301q-45 0 -93 -8z" />
    <glyph glyph-name="U" unicode="U" horiz-adv-x="1493" 
d="M491 1145q0 39 -18 66.5t-39 36.5t-88 18q-22 3 -22 19q0 20 24 20q28 0 78 -5q125 -13 233 -13q75 0 151 9q43 4 69 4q38 0 38 -25q0 -11 -7 -14.5t-46 -8.5q-62 -7 -92 -25.5t-64.5 -80.5t-74.5 -236t-73 -347t-33 -255q0 -108 83 -190t236 -82q168 0 274 103t195 426
t89 468q0 103 -54 161t-144 64q-25 2 -25 20q0 19 44 19q53 0 128 -5q112 -6 149 -6q52 0 136 7q11 1 19 1q25 0 25 -20q0 -16 -44 -21q-67 -9 -103.5 -44.5t-51.5 -86.5t-38 -209q-28 -197 -120.5 -493t-238 -371.5t-312.5 -75.5q-202 0 -320.5 83.5t-118.5 224.5
q0 88 72 425q84 398 84 439z" />
    <glyph glyph-name="V" unicode="V" horiz-adv-x="1237" 
d="M506 294q27 21 188.5 196t298 344t165 222.5t28.5 100.5q0 94 -116 100q-39 2 -39 19q0 22 34 22q14 0 89 -2l155 4q199 0 234 -3t35 -19q0 -14 -51 -24q-103 -20 -169 -73t-438 -498q-136 -163 -409 -451q-135 -141 -184.5 -203.5t-72.5 -62.5q-14 0 -14 14q0 16 7 38
q248 970 248 1098q0 54 -40.5 91t-117.5 37q-23 0 -23 18q0 21 44 21l224 -5q97 0 215 11q61 6 96 6q21 0 21 -17q0 -18 -26 -20q-89 -8 -121 -31t-61 -99.5t-86 -315t-114 -518.5z" />
    <glyph glyph-name="W" unicode="W" horiz-adv-x="1877" 
d="M492 294q504 530 579.5 632.5t75.5 241.5q0 30 -19 48t-77 29q-21 4 -21 18q0 13 14.5 16t73.5 3l301 -2q19 0 50 2q55 2 78 2q27 0 27 -20q0 -18 -24 -19q-71 -3 -115.5 -37t-93.5 -139t-121.5 -352.5t-110.5 -448.5q439 406 606.5 610.5t167.5 276.5q0 37 -27.5 65.5
t-76.5 28.5q-38 0 -48.5 4t-10.5 19q0 20 44 20l137 -2q154 0 193 2q76 5 98 5q41 0 41 -26q0 -16 -46 -23q-60 -10 -116 -37.5t-92.5 -63.5t-115.5 -143q-110 -149 -215 -267.5t-348 -346.5q-231 -217 -372 -380q-37 -43 -48 -43q-18 0 -18 29q0 36 75.5 330t144.5 533
q-82 -74 -395 -420q-103 -114 -266.5 -284.5t-174.5 -178t-18 -7.5q-17 0 -17 21q0 28 46 168q52 158 149.5 512t97.5 443q0 54 -37.5 88t-77.5 37q-31 1 -31 17q0 22 36 22q65 0 135 3q52 3 144 3t140 3q43 3 66 3q36 0 36 -23q0 -16 -19 -19q-67 -10 -92 -28t-57 -79.5
t-96 -255t-109.5 -358t-49.5 -232.5z" />
    <glyph glyph-name="X" unicode="X" horiz-adv-x="1451" 
d="M946 692q138 -357 233.5 -492t185.5 -150q57 -10 64.5 -13t7.5 -15q0 -17 -24 -17l-210 5l-434 -6q-23 0 -23 17q0 15 23 18q198 27 198 94q0 23 -47 143l-113 281q-179 -179 -259 -278.5t-80 -152.5q0 -34 24.5 -61.5t75.5 -28.5q47 -1 47 -18q0 -21 -31 -21l-190 4
q-102 0 -174 -5q-55 -4 -84 -4q-34 0 -34 18q0 15 24 17q63 6 132.5 39.5t231.5 213.5l169 182l128 138q-113 285 -181 427t-113.5 179t-134.5 37q-48 0 -48 16q0 26 42 26l95 -3q220 0 310 5l153 8q45 0 45 -23q0 -19 -59 -23q-65 -4 -91.5 -31t-26.5 -59q0 -59 47 -166
l100 -252q30 26 148.5 157t138 165.5t19.5 74.5q0 92 -108 106q-49 6 -49 22q0 18 27 18q15 0 55 -2q39 -2 128 -2q129 0 183 5q81 9 118 9q31 0 31 -22q0 -15 -49 -25q-112 -22 -208 -108.5t-413 -446.5z" />
    <glyph glyph-name="Y" unicode="Y" horiz-adv-x="1429" 
d="M887 704l112 207q63 115 149 215t179.5 152t180.5 52q61 0 99.5 -43t38.5 -91q0 -43 -26.5 -80.5t-77.5 -37.5q-35 0 -54.5 18.5t-59.5 95.5q-22 43 -57 43q-72 0 -201 -152t-268 -468t-139 -462q0 -61 39 -93t102 -33q66 0 76 -4t10 -15q0 -18 -39 -18l-393 10
q-90 0 -168 -6q-48 -4 -79 -4q-32 0 -32 21q0 11 10 14t61 5q107 3 171 75.5t151 391t87 481.5q0 133 -44.5 197t-106.5 64q-60 0 -120 -38.5t-91.5 -88.5t-60.5 -143l-20 -63q-5 -14 -17 -14q-17 0 -17 18q0 60 52 172t142.5 174t178.5 62q99 0 174.5 -94.5t75.5 -265.5
q0 -133 -18 -254z" />
    <glyph glyph-name="Z" unicode="Z" horiz-adv-x="1280" 
d="M1176 5l-258 1l-250 -1l-240 1q-129 0 -198 -9q-42 -5 -68 -5q-16 0 -16 13q5 17 56.5 83t291.5 345l420 492q180 214 248 286q11 13 11 23q0 7 -14 7l-121 2l-244 4q-78 0 -123 -18t-170 -112t-180 -160q-14 -16 -23 -16q-21 0 -21 16q0 10 54 110l126 232
q137 -9 615 -12l330 2q18 0 18 -12q0 -9 -7.5 -21.5t-254.5 -308.5l-433 -517l-216 -255q-93 -108 -93 -115q0 -11 34 -14t202 -3q246 0 320.5 30t165 128t138.5 199q11 24 24 24q18 0 18 -18q0 -13 -8 -31q-11 -29 -44 -120l-57 -160q-25 -78 -33 -90z" />
    <glyph glyph-name="bracketleft" unicode="[" horiz-adv-x="917" 
d="M512 1206q-1 -8 -92 -413l-174 -767l-95 -401q314 81 400 81q83 0 141.5 -51.5t58.5 -113.5q0 -36 -20 -60t-33 -24q-20 0 -20 17q0 7 6 16q17 24 17 40q0 22 -18 38t-105 16q-180 0 -322 -13q-95 -8 -146 -8q-22 0 -22 17q1 6 53 228l115 489l111 489l98 453q5 20 13 20
q54 0 166 -8q125 -9 347 -9q52 0 78.5 20.5t26.5 43.5q0 7 -8 31l-1 9q0 17 16 17q20 0 30.5 -28t10.5 -51q0 -68 -65 -118t-128 -50q-88 0 -439 90z" />
    <glyph glyph-name="backslash" unicode="\" horiz-adv-x="1024" 
d="M442 1426h81l373 -1463h-81z" />
    <glyph glyph-name="bracketright" unicode="]" horiz-adv-x="917" 
d="M560 -387q1 8 92 414l175 766l94 401q-313 -81 -400 -81q-82 0 -140.5 51t-58.5 114q0 31 18 57.5t34 26.5q20 0 20 -17q0 -7 -6 -16q-16 -23 -16 -40q0 -23 19.5 -38.5t102.5 -15.5q180 0 322 13q95 8 146 8q22 0 22 -17l-1 -8q-5 -20 -102 -433l-183 -788l-43 -207
l-37 -171q-15 -68 -16.5 -70t-6.5 -2q-52 0 -167 8q-129 10 -347 10q-56 0 -80.5 -22.5t-24.5 -42.5q0 -8 8 -31l2 -9q0 -17 -17 -17q-20 0 -30.5 28t-10.5 51q0 69 65.5 118.5t127.5 49.5q88 0 439 -90z" />
    <glyph glyph-name="asciicircum" unicode="^" horiz-adv-x="875" 
d="M642 1387l425 -716h-92l-350 586l-350 -586h-94l431 716h30z" />
    <glyph glyph-name="underscore" unicode="_" horiz-adv-x="1024" 
d="M-42 -154h1048v-102h-1048v102z" />
    <glyph glyph-name="grave" unicode="`" 
d="M749 963q0 -19 -16 -19q-12 0 -38.5 26.5t-119 128t-112.5 130t-20 62.5q0 22 17 38t44 16q38 0 75.5 -41t103.5 -187t66 -154z" />
    <glyph glyph-name="a" unicode="a" horiz-adv-x="939" 
d="M957 838q-28 -62 -113 -332l-88 -279q-28 -76 -28 -130q0 -34 33 -34q23 0 67.5 32.5t86.5 82.5q28 33 39 33q17 0 17 -17q0 -27 -109 -119.5t-194 -92.5q-58 0 -58 79q0 55 7 140q-155 -210 -324 -210q-73 0 -108 53.5t-35 120.5q0 193 192.5 443.5t363.5 250.5
q45 0 71.5 -31t33.5 -94q18 46 57 120q32 -5 61 -10q21 -5 28 -6zM650 804q-58 0 -142 -83.5t-149 -245.5t-65 -270q0 -64 23 -96.5t68 -32.5q116 0 234.5 212t118.5 384q0 56 -24.5 94t-63.5 38z" />
    <glyph glyph-name="b" unicode="b" horiz-adv-x="853" 
d="M631 1365l-172 -599q145 92 226 92q101 0 155 -86t54 -203q0 -221 -161 -406t-320 -185q-98 0 -160.5 58t-62.5 165q0 101 81 383l183 629q11 35 11 56q0 56 -95 61q-24 1 -24 19q0 16 20 16l160 -4q48 0 105 4zM453 27q119 0 210 172t91 397q0 105 -27.5 157t-82.5 52
q-71 0 -147.5 -82t-122 -247.5t-45.5 -252.5q0 -98 31 -147t93 -49z" />
    <glyph glyph-name="c" unicode="c" 
d="M665 853q52 0 92.5 -36t40.5 -87q0 -36 -20.5 -56t-44.5 -20q-28 0 -42 17t-27 62q-12 47 -24 56t-30 9q-58 0 -139.5 -89.5t-134.5 -248t-53 -267.5q0 -82 27.5 -123t81.5 -41q59 0 129 58.5t116 126.5q24 35 40 35t16 -18q0 -34 -108.5 -145t-252.5 -111
q-94 0 -149.5 56t-55.5 147q0 157 98 323t217.5 259t222.5 93z" />
    <glyph glyph-name="d" unicode="d" horiz-adv-x="981" 
d="M1158 1346q-28 -94 -139 -415q-245 -710 -245 -818q0 -18 8 -27.5t24 -9.5q65 0 186 155q16 22 26 22q5 0 12.5 -8t7.5 -13q0 -10 -56 -79t-130 -118.5t-120 -49.5q-33 0 -59.5 36.5t-26.5 91.5q0 28 5 79q-175 -210 -326 -210q-88 0 -132.5 48.5t-44.5 145.5
q0 214 181 424.5t375 210.5q34 0 68.5 -5.5t69.5 -17.5l128 373q21 58 21 97q0 28 -32 42.5t-107 25.5q-23 3 -23 19q0 18 19 18t48 -3q102 -11 262 -14zM686 771q-117 0 -255 -191t-138 -372q0 -65 25.5 -116t65.5 -51q59 0 157.5 94t171.5 258t73 279q0 41 -25.5 70
t-74.5 29z" />
    <glyph glyph-name="e" unicode="e" horiz-adv-x="704" 
d="M316 353q-32 -138 -32 -209q0 -43 24.5 -77.5t66.5 -34.5q60 0 127 49.5t113 120.5q23 35 42 35t19 -18q0 -50 -110.5 -144.5t-230.5 -94.5q-92 0 -144.5 67.5t-52.5 155.5q0 191 173.5 423t338.5 232q58 0 96.5 -41t38.5 -90q0 -98 -108.5 -200t-360.5 -174zM331 398
q151 66 252.5 169.5t101.5 190.5q0 19 -14.5 37.5t-39.5 18.5q-65 0 -149 -87.5t-151 -328.5z" />
    <glyph glyph-name="f" unicode="f" horiz-adv-x="576" 
d="M533 771l-222 -787q-80 -273 -200.5 -400.5t-272.5 -127.5q-91 0 -150.5 48.5t-59.5 115.5q0 44 27 75t66 31q34 0 58 -21.5t24 -51.5q0 -18 -12 -44q-14 -31 -14 -47q0 -23 22.5 -42.5t59.5 -19.5q138 0 237.5 236.5t233.5 769.5q53 210 69 262l-211 -5l13 56
q80 6 214 8q67 273 189 406t279 133q92 0 144 -48t52 -110q0 -36 -24 -64.5t-63 -28.5q-32 0 -55.5 20.5t-23.5 51.5q0 22 23 55q15 20 15 36q0 23 -17.5 34.5t-53.5 11.5q-97 0 -174 -96.5t-154 -388.5q15 -4 190 -4q-2 -10 -5 -28q-2 -19 -5 -31q-100 -2 -199 -5z" />
    <glyph glyph-name="g" unicode="g" horiz-adv-x="960" 
d="M871 716q27 -46 27 -105q0 -90 -43 -171.5t-118 -136t-138.5 -70t-156.5 -17.5q-176 -3 -176 -57q0 -60 181 -93q183 -32 258.5 -61t117.5 -85.5t42 -121.5q0 -128 -141.5 -235.5t-363.5 -107.5q-175 0 -276.5 64t-101.5 151q0 79 86 163.5t219 136.5q-121 45 -121 133
q0 51 46 92t141 57q-56 47 -84.5 101t-28.5 115q0 159 119 276t280 117q68 0 120 -27t89 -81q100 111 176 111q48 0 82 -30t34 -68q0 -26 -17.5 -50t-47.5 -24q-35 0 -69 43q-32 40 -57 40q-27 0 -78 -59zM626 820q-100 0 -176 -122t-76 -279q0 -75 39 -117t89 -42
q106 0 178 131.5t72 258.5q0 80 -35 125t-91 45zM355 -59q-127 -22 -188.5 -103t-61.5 -162q0 -79 71.5 -129.5t203.5 -50.5q156 0 260.5 75.5t104.5 169.5q0 74 -67 115t-289 79z" />
    <glyph glyph-name="h" unicode="h" horiz-adv-x="939" 
d="M425 537q149 188 234.5 259.5t151.5 71.5q51 0 82 -32t31 -79q0 -83 -100 -365q-93 -261 -93 -312q0 -32 29 -32q28 0 85 51t105 117q16 21 28 21q17 0 17 -21q0 -32 -106.5 -136t-201.5 -104q-98 0 -98 72q0 51 30 128q49 123 110 315t61 248q0 23 -8 34t-25 11
q-46 0 -147 -88t-166.5 -208t-132.5 -335q-42 -133 -50.5 -153.5t-20.5 -20.5q-30 0 -71 11t-41 18q0 10 5 23q10 29 149 455l142 443l74 261q13 37 13 62q0 33 -109 53q-38 7 -38 26t40 19l173 -1q86 -1 92 -4t6 -9l-4 -14q-3 -7 -6 -21q-26 -120 -240 -764z" />
    <glyph glyph-name="i" unicode="i" horiz-adv-x="576" 
d="M640 1343q32 0 55 -23t23 -55q0 -33 -23 -56t-55 -23q-33 0 -56 23t-23 56t23.5 55.5t55.5 22.5zM316 61q0 -17 7.5 -25.5t21.5 -8.5q31 0 86 35t105 87q22 23 35 23q18 0 18 -16q0 -35 -101 -107.5t-187 -72.5q-55 0 -83.5 22.5t-28.5 52.5q0 45 111 315
q141 340 141 386q0 18 -6.5 26.5t-20.5 8.5q-43 0 -138 -92q-37 -36 -52 -36q-14 0 -14 16q0 26 105 106.5t187 80.5q34 0 58.5 -25.5t24.5 -54.5q0 -36 -12.5 -71t-149.5 -360q-107 -273 -107 -290z" />
    <glyph glyph-name="j" unicode="j" horiz-adv-x="512" 
d="M608 1348q32 0 55.5 -23t23.5 -56t-23.5 -56t-55.5 -23t-55.5 23t-23.5 56t23 56t56 23zM-140 -542q-70 0 -121.5 41t-51.5 110q0 43 26.5 70.5t67.5 27.5q73 0 73 -67q0 -27 -24 -59q-26 -34 -26 -50q0 -18 16 -27t48 -9q124 0 203 143.5t256 774.5l74 260q18 57 18 98
q0 17 -8 25t-24 8q-54 0 -144 -113q-46 -59 -59 -59q-19 0 -19 18q0 15 94.5 118.5t187.5 103.5q40 0 68 -27.5t28 -61.5q0 -81 -127.5 -498.5t-177 -540.5t-153.5 -204.5t-225 -81.5z" />
    <glyph glyph-name="k" unicode="k" horiz-adv-x="853" 
d="M414 503q-11 -41 -68 -219l-92 -289q-33 -3 -87 -3q-19 0 -32 3q6 56 50 184q58 166 174 555l127 437q12 47 12 90q0 60 -53 63q-59 4 -59 21q0 24 46 24q22 0 243 3q-15 -46 -88 -293l-160 -536q27 -2 41 -2q59 0 113 28t103 155q36 91 76 114t71 23q42 0 65.5 -27
t23.5 -63q0 -60 -59 -60q-34 0 -64 42q-15 20 -25 20q-26 0 -42 -46q-44 -125 -122 -184q74 -46 74 -137q0 -71 -31 -265q-4 -30 -4 -53q0 -33 21 -33q27 0 125 83q30 26 46 26q18 0 18 -14q0 -19 -38 -46q-7 -6 -82.5 -64.5t-129.5 -58.5q-41 0 -61 28t-20 62q0 57 28 248
q8 53 8 88q0 36 -18.5 60.5t-37 28t-92.5 7.5z" />
    <glyph glyph-name="l" unicode="l" horiz-adv-x="533" 
d="M694 1371q-19 -69 -174 -567l-186 -617q-31 -120 -31 -139q0 -16 13 -16q28 0 111 69t119 125q24 37 36 37q17 0 17 -17q0 -34 -111.5 -150t-216.5 -116q-31 0 -56 22.5t-25 66.5q0 70 21 148.5t194 630.5q114 362 114 413q0 55 -117 59q-44 1 -44 20q0 21 44 21z" />
    <glyph glyph-name="m" unicode="m" horiz-adv-x="1429" 
d="M168 -14q141 382 189.5 544.5t48.5 197.5q0 17 -6 25.5t-19 8.5q-46 0 -177 -185q-25 -36 -38 -36q-20 0 -20 14q0 24 107 156t187 132q44 0 65.5 -23.5t21.5 -70.5q0 -73 -72 -280q15 21 60 99q170 293 311 293q64 0 93 -41.5t29 -96.5q0 -58 -50 -254q129 243 215 317
t160 74q55 0 88.5 -33.5t33.5 -85.5q0 -101 -152 -528q-42 -115 -42 -137q0 -14 6.5 -21t18.5 -7q26 0 106 66t120 120q21 28 38 28q16 0 16 -12q0 -38 -132.5 -155.5t-222.5 -117.5q-32 0 -53.5 24t-21.5 61q0 52 45 174q147 400 147 511q0 28 -9.5 41.5t-28.5 13.5
q-92 0 -229 -234t-262 -582q-35 -4 -73 -4q-26 0 -48 4q205 566 205 689q0 58 -13 87t-40 29q-72 0 -209.5 -229t-264.5 -576q-26 -4 -39 -4q-7 0 -24 1q-34 3 -65 3z" />
    <glyph glyph-name="n" unicode="n" horiz-adv-x="981" 
d="M487 502q106 177 199 265.5t173 88.5q47 0 72 -33.5t25 -79.5q0 -57 -16.5 -117.5t-82.5 -244.5q-89 -247 -89 -291q0 -33 29 -33q26 0 80.5 44.5t80.5 87.5q26 45 43 45t17 -20q0 -41 -102.5 -140.5t-196.5 -99.5q-92 0 -92 77q0 80 147 464q57 148 57 222
q0 23 -8.5 34.5t-26.5 11.5q-30 0 -112.5 -76.5t-187.5 -271.5t-172 -358q-41 -101 -54 -101q-98 0 -98 26l3 10l169 489q66 179 66 248q0 30 -28 30q-25 0 -81 -49.5t-89 -93.5q-26 -34 -42 -34q-15 0 -15 16q0 32 108.5 136t208.5 104q32 0 49 -23t17 -48q0 -40 -51 -285z
" />
    <glyph glyph-name="o" unicode="o" horiz-adv-x="853" 
d="M596 853q133 0 209 -102t76 -241q0 -195 -137 -363.5t-327 -168.5q-140 0 -202 103t-62 216q0 149 77 289t179 203.5t187 63.5zM615 812q-56 0 -123.5 -65t-133 -234t-65.5 -317q0 -72 33 -124t89 -52q63 0 136.5 75t135.5 232t62 298q0 94 -33.5 140.5t-100.5 46.5z" />
    <glyph glyph-name="p" unicode="p" horiz-adv-x="896" 
d="M413 794l88 307q71 -1 131 -10l-75 -257q49 10 90 10q136 0 205 -86t69 -199q0 -223 -168 -377t-454 -199q-113 -327 -113 -417q0 -65 128 -78q24 -3 24 -17q0 -19 -26 -19l-219 6q-53 0 -110 -6q-72 -6 -110 -6q-28 0 -28 18t43 21q68 4 106 33.5t71 123.5t141 458
l188 632q-53 -27 -127 -92t-106 -106q-39 -51 -53 -51t-14 16q0 33 98 129t221 166zM322 45q26 -4 36 -4q119 0 266 133.5t147 348.5q0 144 -53 206.5t-129 62.5q-19 0 -45 -7z" />
    <glyph glyph-name="q" unicode="q" horiz-adv-x="896" 
d="M968 850l-169 -627l-135 -504q-25 -83 -25 -137q0 -50 18.5 -66t66.5 -20q42 -4 42 -21q0 -23 -30 -23q-22 0 -72 5q-39 4 -109 4q-79 0 -125 -3q-67 -5 -98 -5q-27 0 -27 22q0 11 13.5 15t70.5 10q65 8 88.5 58.5t155.5 543.5q-119 -129 -238 -129q-111 0 -177.5 79
t-66.5 198q0 211 144 406.5t289 195.5q104 0 176 -127q24 -42 41 -46l69 171h98zM295 229q0 -87 42.5 -142.5t93.5 -55.5q68 0 144.5 71t121 240.5t44.5 266.5q0 80 -45.5 138.5t-106.5 58.5q-67 0 -138.5 -87.5t-113.5 -233.5t-42 -256z" />
    <glyph glyph-name="r" unicode="r" horiz-adv-x="768" 
d="M497 573q85 141 160 211.5t141 70.5q44 0 73.5 -26t29.5 -69q0 -36 -23.5 -67t-60.5 -31q-64 0 -80 57q-10 38 -27 38q-31 0 -104 -98t-147 -247l-141 -432h-54l-55 -1l-14 1q5 22 59 186q145 545 145 597q0 19 -15 19q-19 0 -72 -51t-92 -108q-31 -45 -48 -45t-17 16
q0 24 104 142.5t182 118.5q41 0 61.5 -24.5t20.5 -51.5q0 -31 -12 -99q-4 -23 -14 -107z" />
    <glyph glyph-name="s" unicode="s" horiz-adv-x="640" 
d="M615 265q0 -118 -85 -204t-200 -86q-99 0 -154.5 53t-55.5 99q0 30 22 58t58 28q33 0 52.5 -20t19.5 -48q0 -15 -9 -37q-9 -23 -9 -34q0 -26 22.5 -39.5t67.5 -13.5q75 0 116.5 42.5t41.5 103.5q0 60 -79 166q-127 171 -127 276q0 93 71 173t174 80q73 0 128.5 -41
t55.5 -90q0 -32 -21.5 -55.5t-50.5 -23.5q-56 0 -56 59l1 54q0 22 -26 38q-27 15 -56 15q-45 0 -84 -31t-39 -90q0 -61 113 -204q109 -138 109 -228z" />
    <glyph glyph-name="t" unicode="t" horiz-adv-x="576" 
d="M520 794q-8 -29 -53 -159q-148 -421 -148 -512q0 -60 45 -60q74 0 220 170q19 22 33 22q18 0 18 -14q0 -26 -123.5 -144.5t-256.5 -118.5q-46 0 -69 26t-23 56q0 68 43 184q3 8 183 543l-94 2l-66 -3q-14 0 -14 14q0 29 6 33.5t54 8.5t132 4q25 83 62 188l39 114
q3 8 12 8q36 0 70.5 -9.5t34.5 -20.5l-3 -8l-91 -277l123 -3q61 -2 63.5 -3.5t2.5 -7.5q0 -44 -15 -44l-74 6z" />
    <glyph glyph-name="u" unicode="u" horiz-adv-x="960" 
d="M998 841q-16 -51 -67 -187q-174 -456 -174 -559q0 -14 6 -21t18 -7q31 0 84 53q52 53 83 101q23 37 40 37q16 0 16 -16q0 -41 -107.5 -150.5t-189.5 -109.5q-35 0 -52.5 24.5t-17.5 73.5q0 99 42 239q-219 -336 -371 -336q-38 0 -67.5 32.5t-29.5 76.5t11 89.5t82 258.5
t86 249q18 43 18 74q0 11 -5 16.5t-16 5.5q-43 0 -157 -135q-44 -53 -57 -53q-14 0 -14 14q0 35 104.5 138.5t183.5 103.5q37 0 64.5 -30t27.5 -69q0 -57 -65 -217q-132 -326 -132 -429q0 -19 10.5 -35t25.5 -16q20 0 59 26t131 149.5t168 283.5l153 325q17 6 38 6
q29 0 71 -6z" />
    <glyph glyph-name="v" unicode="v" horiz-adv-x="917" 
d="M555 706q-47 -26 -68 -26q-40 0 -95 53q-49 49 -77 49q-23 0 -23 -17q0 -14 12 -35q29 -46 29 -69q0 -22 -21.5 -46.5t-54.5 -24.5q-32 0 -51.5 23.5t-19.5 54.5q0 67 56.5 118t117.5 51q39 0 95 -29q77 -39 123 -39q29 0 53 41q24 40 39 40q9 0 19 -8.5t10 -18.5
q0 -24 -61 -79q-67 -62 -123.5 -232.5t-56.5 -292.5q0 -78 17.5 -117.5t51.5 -39.5q55 0 150 83.5t158 207.5t63 211q0 46 -43 158q-15 40 -15 69q0 23 19 44t48 21q48 0 70 -52.5t22 -116.5q0 -127 -95.5 -322.5t-222 -292t-234.5 -96.5q-71 0 -109.5 42t-38.5 103
q0 84 52.5 215t126.5 245q54 83 77 125z" />
    <glyph glyph-name="w" unicode="w" horiz-adv-x="1408" 
d="M581 721q-43 -23 -65 -23q-17 0 -78 44q-78 56 -127 56q-23 0 -34.5 -6t-11.5 -18t32 -27q42 -19 42 -70q0 -25 -19.5 -49.5t-55.5 -24.5q-40 0 -67 26t-27 61q0 61 59.5 112t144.5 51q64 0 181 -59q24 -13 39 -13q25 0 59 44q24 30 40 30q18 0 18 -17q0 -14 -25 -43
q-34 -39 -108.5 -155.5t-110 -211t-35.5 -166.5q0 -67 35 -127.5t99 -60.5q110 0 238 150q25 30 30 35q-2 33 -2 49q0 222 68.5 377.5t151.5 155.5q40 0 59.5 -26.5t19.5 -79.5q0 -73 -46.5 -190.5t-132.5 -218.5q27 -116 73 -175.5t94 -59.5q88 0 184.5 145t96.5 301
q0 49 -20 142q-13 62 -13 80q0 29 18.5 48t41.5 19q72 0 72 -92q0 -108 -64.5 -320.5t-174.5 -319.5t-218 -107q-87 0 -142.5 54t-65.5 145q-95 -105 -185.5 -157.5t-176.5 -52.5q-76 0 -120 48.5t-44 122.5q0 197 273 574zM936 383q64 86 96 164.5t32 149.5q0 41 -10 61.5
t-30 20.5q-24 0 -65.5 -65.5t-41.5 -171.5q0 -75 19 -159z" />
    <glyph glyph-name="x" unicode="x" horiz-adv-x="1003" 
d="M484 131q-16 -9 -62 -47q-107 -90 -185 -90q-60 0 -113 34.5t-53 86.5q0 41 26 67t61 26q55 0 55 -59q0 -11 -2 -24q-4 -21 -4 -30q0 -19 16 -36q15 -18 40 -18q115 0 220.5 260.5t105.5 375.5q0 55 -21.5 88.5t-49.5 33.5q-55 0 -143 -94q-34 -36 -49 -36q-17 0 -17 15
q0 24 86.5 96.5t159.5 72.5q57 0 91 -32.5t45 -97.5l10 -4q7 0 28 23q104 113 212 113q55 0 93 -40.5t38 -88.5q0 -28 -20.5 -50t-58.5 -22q-26 0 -44 16.5t-18 41.5q0 10 3 23q5 25 5 36q0 31 -29 31q-131 0 -220.5 -250t-89.5 -385q0 -68 32.5 -100.5t68.5 -32.5
q47 0 111.5 39t120.5 119q22 31 38 31t16 -18q0 -42 -102 -129.5t-214 -87.5q-108 0 -159 94q-20 39 -28 49z" />
    <glyph glyph-name="y" unicode="y" horiz-adv-x="768" 
d="M540 118q76 114 140 268.5t64 238.5q0 49 -17 109q-9 31 -9 45q0 76 61 76q26 0 43.5 -23t17.5 -54q0 -81 -58 -252.5t-188.5 -406t-265.5 -393t-217 -210t-141 -51.5q-54 0 -91 32t-37 87q0 40 22 68t59 28q66 0 68 -88q1 -53 42 -53q116 0 401 407q-27 264 -62.5 499.5
t-52 273t-39.5 37.5q-47 0 -117 -154q-31 -68 -50 -68q-17 0 -17 16t12 40l55 108q29 57 59 93t61 53t56 17q61 0 90 -82t70 -388q28 -213 41 -273z" />
    <glyph glyph-name="z" unicode="z" horiz-adv-x="981" 
d="M787 646q-27 4 -41 4q-15 0 -51 -6t-53 -6q-43 0 -77.5 20.5t-106.5 86.5q-49 45 -84 45q-47 0 -88 -38.5t-41 -101.5q0 -31 11.5 -47t34.5 -16q0 108 78 108q37 0 64 -25t27 -64q0 -47 -34 -76.5t-79 -29.5q-59 0 -101.5 46t-42.5 109q0 81 67 142.5t144 61.5
q108 0 285 -107q78 -47 115 -47q19 0 37 22q106 133 160 133q17 0 29.5 -13t12.5 -28q0 -44 -90 -91q-48 -25 -73.5 -45.5t-166.5 -156t-182 -179.5q-51 -53 -67 -68q-52 -46 -52 -64l2 -11q53 10 76 10q59 0 126 -47q66 -46 84 -54.5t46 -8.5q129 0 197 183q16 42 32 42
q18 0 18 -18q0 -14 -48 -114t-115.5 -162.5t-124.5 -62.5q-56 0 -129.5 42t-130.5 97q-48 47 -76 47q-74 0 -136 -111q-39 -69 -83 -69q-20 0 -34 16.5t-14 37.5q0 43 79 85q112 61 206 153z" />
    <glyph glyph-name="braceleft" unicode="{" horiz-adv-x="981" 
d="M889 -496v-35q-160 18 -268 131.5t-108 256.5q0 68 21 156q25 105 25 153q0 76 -62 139t-166 76v40q105 13 166.5 76t61.5 139q0 48 -25 153q-21 88 -21 156q0 142 108.5 256t267.5 132v-35q-226 -56 -226 -237q0 -52 24 -158q21 -90 21 -156q0 -104 -76.5 -199.5
t-218.5 -144.5q137 -50 216 -146t79 -203q0 -65 -21 -156q-24 -105 -24 -157q0 -181 226 -237z" />
    <glyph glyph-name="bar" unicode="|" horiz-adv-x="1024" 
d="M612 1366h89v-1911h-89v1911z" />
    <glyph glyph-name="braceright" unicode="}" horiz-adv-x="981" 
d="M286 1298v35q160 -19 268 -132t108 -257q0 -67 -21 -155q-25 -105 -25 -153q0 -76 62 -139t166 -76v-40q-105 -13 -166.5 -76t-61.5 -139q0 -48 25 -153q21 -88 21 -156q0 -142 -108.5 -256t-267.5 -132v35q226 56 226 237q0 52 -24 157q-22 91 -22 156q0 104 77 200
t219 145q-137 49 -216.5 145.5t-79.5 202.5q0 66 22 156q24 106 24 158q0 181 -226 237z" />
    <glyph glyph-name="asciitilde" unicode="~" horiz-adv-x="1365" 
d="M1293 666h43q-3 -125 -72 -199.5t-171 -74.5q-50 0 -108 18.5t-264 103.5q-156 63 -222 63q-148 0 -185 -183h-43q4 137 75.5 205.5t156.5 68.5q91 0 380 -123q154 -66 223 -66q76 0 127.5 49t59.5 138z" />
    <glyph glyph-name="nonbreakingspace" unicode="&#xa0;" horiz-adv-x="501" 
 />
    <glyph glyph-name="exclamdown" unicode="&#xa1;" horiz-adv-x="619" 
d="M486 617q-35 0 -60.5 25t-25.5 60q0 36 25 61t61 25q35 0 60 -25.5t25 -60.5t-25 -60t-60 -25zM439 472q17 0 17 -17q0 -5 -2 -11q-27 -90 -68.5 -338.5t-57.5 -401.5q-18 -172 -49.5 -209.5t-70.5 -37.5q-42 0 -65.5 28t-23.5 54q0 44 77 267l151 437q73 213 80 221
t12 8z" />
    <glyph glyph-name="cent" unicode="&#xa2;" 
d="M700 849l104 184l39 -20l-100 -182q53 -51 53 -102q0 -29 -17 -52t-48 -23q-43 0 -58 49l-353 -637q22 -36 66 -36q58 0 125 49t120 126q30 44 45 44q18 0 18 -18q0 -23 -61 -96t-133 -117t-170 -44q-27 0 -56 8l-137 -248l-40 21l132 240q-102 61 -102 185
q0 132 82.5 291.5t210 270.5t251.5 111q10 0 29 -4zM654 765q-10 33 -40 33q-109 0 -218 -203t-109 -386q0 -42 11 -93z" />
    <glyph glyph-name="sterling" unicode="&#xa3;" horiz-adv-x="1707" 
d="M887 408l410 31l24 2q23 0 23 -25q0 -18 -6.5 -23.5t-31.5 -7.5l-431 -34q-75 -239 -184 -365q260 -86 461 -86q133 0 234 49.5t109 117.5q4 33 19 33q16 0 16 -31q0 -154 -100 -234.5t-240 -80.5q-75 0 -219 49.5t-328 127.5q-185 -168 -363 -168q-93 0 -162.5 46
t-69.5 117q0 62 65.5 107.5t148.5 45.5q158 0 337 -64q59 139 92 322l-382 -27q-17 -1 -22 -1q-16 0 -16 35q0 17 38 20l391 30q71 400 115.5 532t132 241.5t181.5 151t183 41.5q133 0 244.5 -99.5t111.5 -232.5q0 -140 -86.5 -235.5t-189.5 -95.5q-50 0 -94 21t-44 35
q0 18 16 18q6 0 32 -12q55 -24 87 -24q68 0 122 62t54 206q0 157 -74 238.5t-187 81.5q-89 0 -171 -47.5t-126 -195t-93 -495.5q-21 -149 -27 -177zM574 -37q-158 78 -279 78q-61 0 -107.5 -33.5t-46.5 -96.5q0 -55 34.5 -82.5t103.5 -27.5q194 0 295 162z" />
    <glyph glyph-name="currency" unicode="&#xa4;" horiz-adv-x="1387" 
d="M1086 872l125 125l61 -63l-125 -124q100 -129 100 -281q0 -85 -23 -147t-77 -135l125 -124l-61 -62l-126 124q-129 -101 -282 -101q-154 0 -281 100l-126 -123l-62 62l126 123q-101 128 -101 283q0 153 100 282l-125 123l62 63l125 -124q130 100 282 100t283 -101z
M1158 529q0 146 -104.5 250.5t-250.5 104.5q-147 0 -251 -104t-104 -251q0 -148 104 -252t251 -104q146 0 250.5 104.5t104.5 251.5z" />
    <glyph glyph-name="yen" unicode="&#xa5;" horiz-adv-x="1429" 
d="M997 907q63 118 149.5 218t180 152.5t181.5 52.5q61 0 99 -43t38 -91q0 -40 -25 -79t-78 -39q-36 0 -55 18.5t-59 95.5q-22 43 -57 43q-60 0 -172 -117.5t-256 -411.5h479l-15 -58h-491q-46 -98 -83 -201h538l-15 -58h-543q-51 -156 -51 -235q0 -125 142 -127q66 0 76 -4
t10 -15q0 -18 -39 -18l-393 10q-90 0 -168 -6q-48 -4 -79 -4q-32 0 -32 21q0 11 9.5 14t61.5 5q125 3 186 96t105 263h-453l15 58h454l53 201h-471l14 58h471q35 151 35 272q0 133 -44.5 197t-106.5 64q-60 0 -120 -38.5t-92 -88.5t-60 -143l-20 -63q-5 -14 -17 -14
q-17 0 -17 18q0 51 47 161t138.5 178.5t187.5 68.5q99 0 174.5 -94.5t75.5 -265.5q0 -128 -17 -252z" />
    <glyph glyph-name="brokenbar" unicode="&#xa6;" horiz-adv-x="1024" 
d="M612 1366h89v-721h-89v721zM612 175h89v-720h-89v720z" />
    <glyph glyph-name="section" unicode="&#xa7;" horiz-adv-x="917" 
d="M624 -14q35 -99 35 -183q0 -155 -101.5 -251.5t-254.5 -96.5q-96 0 -147.5 51.5t-51.5 112.5q0 48 32 79.5t74 31.5q34 0 55 -19t21 -46q0 -28 -24 -57q-38 -48 -38 -67q0 -22 27 -33.5t81 -11.5q92 0 155.5 75t63.5 150q0 76 -26.5 152.5t-123.5 257.5q-96 181 -121 246
t-25 137q0 133 79.5 206.5t195.5 78.5q-43 109 -43 208q0 148 103.5 252.5t259.5 104.5q98 0 152.5 -49.5t54.5 -110.5q0 -44 -25.5 -76t-63.5 -32q-27 0 -48 19.5t-21 45.5q0 17 15 46q17 34 17 54q0 25 -26 42t-67 17q-84 0 -158.5 -72.5t-74.5 -182.5q0 -77 21 -149
t104 -230q100 -191 128 -261.5t28 -140.5q0 -107 -73.5 -186.5t-188.5 -111.5zM552 749q-22 8 -35 8q-57 0 -109.5 -44.5t-52.5 -121.5q0 -83 98 -266q85 -156 141 -273q10 -21 26 -21q52 0 104 60t52 133q0 81 -82 243z" />
    <glyph glyph-name="dieresis" unicode="&#xa8;" 
d="M741 1142q35 0 61 -25t26 -63q0 -36 -25.5 -61.5t-61.5 -25.5q-37 0 -62.5 25.5t-25.5 61.5q0 37 26 62.5t62 25.5zM389 1140q36 0 61.5 -25.5t25.5 -61.5t-25.5 -61.5t-61.5 -25.5t-61.5 25.5t-25.5 61.5q0 38 26 62.5t61 24.5z" />
    <glyph glyph-name="copyright" unicode="&#xa9;" horiz-adv-x="1557" 
d="M923 1333q179 0 347 -90.5t265.5 -260.5t97.5 -359q0 -293 -208 -501t-502 -208t-501.5 208t-207.5 501q0 189 97.5 359t265.5 260.5t346 90.5zM923 1271q-167 0 -318.5 -84t-240 -236.5t-88.5 -327.5q0 -268 189.5 -457.5t457.5 -189.5q267 0 457.5 190t190.5 457
q0 175 -88.5 327.5t-240 236.5t-319.5 84zM1274 1079l20 -280h-39q-72 236 -303 236q-103 0 -179 -53.5t-109 -143.5t-33 -191q0 -214 92.5 -313.5t238.5 -99.5q195 0 312 161l37 -18q-139 -203 -383 -203q-206 0 -334.5 132t-128.5 312q0 184 136 323t363 139q71 0 184 -37
q25 -8 37 -8q31 0 49 44h40z" />
    <glyph glyph-name="ordfeminine" unicode="&#xaa;" horiz-adv-x="619" 
d="M799 1319l-132 -369q-17 -36 -17 -66q0 -21 11 -21q63 37 90 68q16 20 31 20q24 0 24 -15q0 -20 -73.5 -76.5t-133.5 -56.5q-49 0 -49 51q0 22 2 52q-95 -98 -195 -98q-51 0 -76 34t-25 74q0 116 126.5 266.5t242.5 150.5q25 0 42.5 -11.5t27.5 -34.5l25 44q31 -4 48 -7
q16 -3 31 -5zM588 1288q-64 0 -140 -123.5t-76 -222.5q0 -35 11.5 -53t34.5 -18q67 0 140.5 122.5t73.5 219.5q0 38 -11 56.5t-33 18.5z" />
    <glyph glyph-name="guillemotleft" unicode="&#xab;" horiz-adv-x="1045" 
d="M201 448l429 326q39 29 43 31l21 2q27 0 27 -12l-9 -11l-312 -352l147 -357l18 -37q-5 -11 -15 -11l-19 1q-4 2 -27 33zM638 437l424 332l33 26q8 7 26 7q25 0 25 -12l-22 -25l-314 -351l95 -381q-4 -11 -21 -11q-11 0 -27 28z" />
    <glyph glyph-name="logicalnot" unicode="&#xac;" horiz-adv-x="1365" 
d="M266 818h1074v-576h-87v487h-987v89z" />
    <glyph glyph-name="registered" unicode="&#xae;" horiz-adv-x="1557" 
d="M923 1333q179 0 347 -90.5t265.5 -260.5t97.5 -359q0 -293 -208 -501t-502 -208t-501.5 208t-207.5 501q0 189 97.5 359t265.5 260.5t346 90.5zM923 1271q-167 0 -318.5 -84t-240 -236.5t-88.5 -327.5q0 -268 189.5 -457.5t457.5 -189.5q267 0 457.5 190t190.5 457
q0 175 -88.5 327.5t-240 236.5t-319.5 84zM531 1060h386q136 0 216.5 -62.5t80.5 -162.5q0 -82 -55.5 -137.5t-166.5 -84.5l209 -297q35 -50 60 -68t61 -20v-34h-184l-294 405h-76v-309q5 -25 23.5 -43.5t94.5 -18.5v-34h-367v34q49 0 71 13t27.5 33t5.5 92v522
q0 71 -4 89.5t-23 32t-65 14.5v36zM768 643h30q125 0 190 49t65 132q0 81 -56.5 136t-144.5 55q-41 0 -84 -15v-357z" />
    <glyph glyph-name="degree" unicode="&#xb0;" horiz-adv-x="811" 
d="M520 1389q125 0 216.5 -88t91.5 -219q0 -127 -90 -217t-218 -90q-127 0 -217 90t-90 217t90.5 217t216.5 90zM520 1306q-90 0 -156.5 -64t-66.5 -159q0 -92 65.5 -157.5t157.5 -65.5t157.5 65.5t65.5 157.5q0 96 -66.5 159.5t-156.5 63.5z" />
    <glyph glyph-name="plusminus" unicode="&#xb1;" horiz-adv-x="1365" 
d="M266 762h492v495h88v-495h495v-88h-495v-491h-88v491h-492v88zM266 88h1075v-88h-1075v88z" />
    <glyph glyph-name="twosuperior" unicode="&#xb2;" horiz-adv-x="704" 
d="M699 706q-50 -4 -55 -4l-363 4q-51 0 -51 10q0 7 20 20q336 216 421 305q84 88 84 166q0 44 -30.5 80.5t-92.5 36.5q-79 0 -149.5 -55.5t-70.5 -126.5q0 -27 18.5 -44t43.5 -17q42 0 90 42q22 19 31 19q14 0 14 -14q0 -21 -55.5 -60t-104.5 -39q-50 0 -84 31.5t-34 80.5
q0 94 102.5 159t229.5 65q105 0 160.5 -44.5t55.5 -124.5q0 -93 -90 -171.5t-373 -219.5q254 0 270 5q45 12 74 53q14 20 23 20q12 0 12 -12q0 -16 -96 -165z" />
    <glyph glyph-name="threesuperior" unicode="&#xb3;" horiz-adv-x="704" 
d="M645 1061q68 -9 101.5 -42t33.5 -90q0 -104 -89 -174t-218 -70q-108 0 -167 42t-59 114q0 30 19 47.5t43 17.5q23 0 39 -15.5t16 -31.5q0 -8 -4 -21q-8 -28 -8 -41q0 -37 27 -56t80 -19q84 0 141.5 67t57.5 153q0 42 -18 62.5t-54 20.5q-30 0 -69 -16q-18 -8 -27 -8
q-20 0 -20 15q0 11 21 20q226 92 226 200q0 32 -25 59.5t-73 27.5q-62 0 -109 -36.5t-47 -80.5q0 -17 10.5 -31t19.5 -14q6 0 14 2q9 3 16 3q17 0 17 -16q0 -15 -24.5 -24.5t-44.5 -9.5q-38 0 -61 21.5t-23 51.5q0 76 80.5 125t175.5 49q80 0 136 -38t56 -91q0 -54 -39 -89
t-151 -84z" />
    <glyph glyph-name="acute" unicode="&#xb4;" 
d="M779 1285q21 0 40.5 -15t19.5 -38q0 -40 -46.5 -79.5t-187 -124t-156.5 -84.5t-16 14q0 12 102 126.5t149 157.5t95 43z" />
    <glyph glyph-name="mu" unicode="&#xb5;" horiz-adv-x="1024" 
d="M335 881h153l-147 -510q-42 -145 -42 -182q0 -59 25 -89t74 -30q90 0 183.5 102t159.5 329l111 380h151l-167 -578l-23 -82q-10 -39 -10 -67q0 -40 14.5 -60.5t42.5 -20.5q68 0 136 142h37q-42 -137 -115 -188t-138 -51q-45 0 -88 35.5t-43 115.5q0 24 5 75
q-62 -96 -152 -161t-170 -65q-58 0 -98.5 27t-63.5 81q-41 -121 -63 -357q-15 -168 -108 -168q-36 0 -55 24.5t-19 55.5q0 38 76 186q61 117 141 390z" />
    <glyph glyph-name="paragraph" unicode="&#xb6;" horiz-adv-x="1472" 
d="M863 -485v730l-65 -3q-234 0 -362.5 139t-128.5 352q0 212 122 353.5t307.5 172.5t652.5 31v-34q-110 -31 -137.5 -65.5t-27.5 -133.5v-1542h-77v1714q-39 7 -70 7q-70 0 -140 -23v-1698h-74z" />
    <glyph glyph-name="cedilla" unicode="&#xb8;" 
d="M365 6h58l-58 -80q70 -47 70 -117q0 -68 -56.5 -118.5t-137 -75.5t-123.5 -25q-22 0 -22 18q0 13 21 18q125 28 155 56q29 28 29 62q0 45 -74 100q76 82 138 162z" />
    <glyph glyph-name="onesuperior" unicode="&#xb9;" horiz-adv-x="704" 
d="M549 1244q0 53 -67 55q-41 2 -41 18t28 16q127 0 197 28q10 5 18 5q16 0 16 -17q0 -5 -16 -55l-108 -354q-40 -131 -40 -150q0 -42 61 -50q32 -5 32 -19q0 -15 -33 -15l-187 1l-82 -1q-30 0 -30 15t36 17q46 4 62 28t85 239t69 239z" />
    <glyph glyph-name="ordmasculine" unicode="&#xba;" horiz-adv-x="555" 
d="M564 1339q90 0 142 -62t52 -143q0 -123 -91.5 -223.5t-216.5 -100.5q-91 0 -136.5 59t-45.5 134q0 131 93.5 233.5t202.5 102.5zM576 1302q-64 0 -129 -121t-65 -235q0 -41 18 -70t48 -29q64 0 132.5 117t68.5 234q0 52 -18 78t-55 26z" />
    <glyph glyph-name="guillemotright" unicode="&#xbb;" horiz-adv-x="1045" 
d="M592 391l-426 -333l-33 -26q-7 -6 -25 -6q-22 0 -25 10l23 27l313 351l-88 353l-7 31q0 7 22 7q11 0 26 -27zM1028 382l-430 -326l-42 -31q-17 -2 -22 -2q-27 0 -27 9l11 14l311 352l-148 357l-15 39q0 9 25 9q10 0 35 -34z" />
    <glyph glyph-name="onequarter" unicode="&#xbc;" horiz-adv-x="1472" 
d="M549 1244q0 53 -67 55q-41 2 -41 18t28 16q127 0 197 28q10 5 18 5q16 0 16 -17q0 -5 -16 -55l-108 -354q-40 -131 -40 -150q0 -42 61 -50q32 -5 32 -19q0 -15 -33 -15l-187 1l-82 -1q-30 0 -30 15t36 17q46 4 62 28t85 239t69 239zM1332 1362h65l-967 -1382h-66z
M1328 269l20 -1q79 0 111 15t45 57q7 22 22 22t15 -15q0 -13 -8 -33l-42 -132q-21 -65 -25.5 -70t-12.5 -5q-15 0 -15 16l2 48q0 57 -66 57h-58q-38 -108 -38 -133q0 -66 80 -71q18 -1 18 -13q0 -18 -25 -18l-142 1h-114l-41 -1q-21 0 -21 14q0 17 36 19q45 3 69 38t59 164
h-357q8 22 17 41q46 48 175 147.5t235 167.5l111 71q3 4 50 4q16 0 16 -11q0 -6 -116 -379zM914 269q132 -2 296 0l44 138q43 147 48 156q-260 -170 -388 -294z" />
    <glyph glyph-name="onehalf" unicode="&#xbd;" horiz-adv-x="1472" 
d="M549 1244q0 53 -67 55q-41 2 -41 18t28 16q127 0 197 28q10 5 18 5q16 0 16 -17q0 -5 -16 -55l-108 -354q-40 -131 -40 -150q0 -42 61 -50q32 -5 32 -19q0 -15 -33 -15l-187 1l-82 -1q-30 0 -30 15t36 17q46 4 62 28t85 239t69 239zM1302 1362h65l-967 -1382h-66z
M1310 -1q-50 -4 -55 -4l-363 4q-51 0 -51 10q0 7 20 20q336 217 421 306q84 88 84 166q0 43 -30 80t-93 37q-84 0 -152 -58.5t-68 -123.5q0 -32 21.5 -47t40.5 -15q42 0 91 42q21 19 30 19q14 0 14 -13q0 -21 -55 -60.5t-105 -39.5q-48 0 -82.5 30.5t-34.5 81.5
q0 94 102 159.5t229 65.5q106 0 161 -45t55 -124q0 -94 -90 -172.5t-372 -219.5q254 0 270 5q44 12 73 54q14 19 23 19q13 0 13 -12q0 -16 -97 -165z" />
    <glyph glyph-name="threequarters" unicode="&#xbe;" horiz-adv-x="1472" 
d="M645 1061q68 -9 101.5 -42t33.5 -90q0 -104 -89 -174t-218 -70q-108 0 -167 42t-59 114q0 30 19 47.5t43 17.5q23 0 39 -15.5t16 -31.5q0 -8 -4 -21q-8 -28 -8 -41q0 -37 27 -56t80 -19q84 0 141.5 67t57.5 153q0 42 -18 62.5t-54 20.5q-30 0 -69 -16q-18 -8 -27 -8
q-20 0 -20 15q0 11 21 20q226 92 226 200q0 32 -25 59.5t-73 27.5q-62 0 -109 -36.5t-47 -80.5q0 -17 10.5 -31t19.5 -14q6 0 14 2q9 3 16 3q17 0 17 -16q0 -15 -24.5 -24.5t-44.5 -9.5q-38 0 -61 21.5t-23 51.5q0 76 80.5 125t175.5 49q80 0 136 -38t56 -91q0 -54 -39 -89
t-151 -84zM1333 1362h65l-968 -1382h-65zM1329 269l20 -1q79 0 110.5 15t44.5 57q8 22 23 22t15 -15q0 -12 -8 -33l-42 -132q-21 -65 -25.5 -70t-12.5 -5q-15 0 -15 16l1 48q0 57 -65 57h-58q-38 -108 -38 -134q0 -65 80 -70q18 -1 18 -13q0 -18 -25 -18l-142 1h-114l-42 -1
q-21 0 -21 14q0 17 36 19q46 3 70 38t59 164h-358q9 22 18 41q45 48 174.5 148t235.5 167l110 71q4 4 50 4q17 0 17 -11q0 -6 -116 -379zM914 269q133 -2 296 0l45 138q43 147 48 156q-260 -170 -389 -294z" />
    <glyph glyph-name="questiondown" unicode="&#xbf;" horiz-adv-x="811" 
d="M586 677q-36 0 -62 25.5t-26 62.5q0 36 25.5 61.5t62.5 25.5q36 0 61.5 -25.5t25.5 -61.5t-25.5 -62t-61.5 -26zM343 -539q-169 0 -237.5 81t-68.5 190q0 96 50 182t128 141.5t260 146.5q133 67 160 102q27 34 27 71q0 54 -41.5 89t-102.5 35q-69 0 -132 -33
q-16 -9 -26 -9q-19 0 -19 17q0 22 52.5 43.5t124.5 21.5q90 0 144 -54t54 -126q0 -92 -64 -162q-64 -71 -252 -184q-266 -159 -266 -323q0 -83 50.5 -135.5t154.5 -52.5q85 0 144 41t59 87q0 27 -36 55q-41 30 -41 69q0 31 21.5 52.5t54.5 21.5q42 0 73 -34.5t31 -88.5
q0 -94 -88.5 -169t-213.5 -75z" />
    <glyph glyph-name="Agrave" unicode="&#xc0;" horiz-adv-x="1301" 
d="M1375 1332l-135 -515l-132 -496q-26 -87 -26 -151q0 -115 124 -133q28 -4 28 -16q0 -20 -28 -20l-181 5l-166 -2l-98 1l-50 -2q-33 0 -33 20q0 18 27 20q101 11 143.5 76t132.5 391q-18 1 -296 1l-53 1q-53 0 -105 -64l-136 -173q-84 -108 -84 -172q0 -58 112 -62
q42 -1 42 -20q0 -12 -9 -14.5t-66 -2.5l-298 5l-69 -2q-21 0 -21 13q0 17 30 23q37 7 89 35.5t91.5 65t116.5 129.5l271 326l275 325q82 92 206 246q88 109 107 121q43 14 191 41zM996 560q41 142 83 285q48 177 66 228q10 31 10 55q0 19 -14 19q-16 0 -51 -35t-172 -199
l-201 -242q-64 -78 -64 -89q0 -19 27 -22l25 1zM1342 1386q0 -19 -16 -19q-12 0 -38.5 26.5t-119 128t-112.5 130t-20 62.5q0 22 17 38t44 16q38 0 75.5 -41t103.5 -187t66 -154z" />
    <glyph glyph-name="Aacute" unicode="&#xc1;" horiz-adv-x="1301" 
d="M1375 1332l-135 -515l-132 -496q-26 -87 -26 -151q0 -115 124 -133q28 -4 28 -16q0 -20 -28 -20l-181 5l-166 -2l-98 1l-50 -2q-33 0 -33 20q0 18 27 20q101 11 143.5 76t132.5 391q-18 1 -296 1l-53 1q-53 0 -105 -64l-136 -173q-84 -108 -84 -172q0 -58 112 -62
q42 -1 42 -20q0 -12 -9 -14.5t-66 -2.5l-298 5l-69 -2q-21 0 -21 13q0 17 30 23q37 7 89 35.5t91.5 65t116.5 129.5l271 326l275 325q82 92 206 246q88 109 107 121q43 14 191 41zM996 560q41 142 83 285q48 177 66 228q10 31 10 55q0 19 -14 19q-16 0 -51 -35t-172 -199
l-201 -242q-64 -78 -64 -89q0 -19 27 -22l25 1zM1562 1739q21 0 40.5 -15t19.5 -38q0 -40 -46.5 -79.5t-187 -124t-156.5 -84.5t-16 14q0 12 102 126.5t149 157.5t95 43z" />
    <glyph glyph-name="Acircumflex" unicode="&#xc2;" horiz-adv-x="1301" 
d="M1375 1332l-135 -515l-132 -496q-26 -87 -26 -151q0 -115 124 -133q28 -4 28 -16q0 -20 -28 -20l-181 5l-166 -2l-98 1l-50 -2q-33 0 -33 20q0 18 27 20q101 11 143.5 76t132.5 391q-18 1 -296 1l-53 1q-53 0 -105 -64l-136 -173q-84 -108 -84 -172q0 -58 112 -62
q42 -1 42 -20q0 -12 -9 -14.5t-66 -2.5l-298 5l-69 -2q-21 0 -21 13q0 17 30 23q37 7 89 35.5t91.5 65t116.5 129.5l271 326l275 325q82 92 206 246q88 109 107 121q43 14 191 41zM996 560q41 142 83 285q48 177 66 228q10 31 10 55q0 19 -14 19q-16 0 -51 -35t-172 -199
l-201 -242q-64 -78 -64 -89q0 -19 27 -22l25 1zM1299 1763h110l124 -361q0 -23 -19 -23t-52 54q-36 60 -127 176q-173 -121 -250 -195q-33 -31 -50 -31q-18 0 -18 15t282 365z" />
    <glyph glyph-name="Atilde" unicode="&#xc3;" horiz-adv-x="1301" 
d="M1375 1332l-135 -515l-132 -496q-26 -87 -26 -151q0 -115 124 -133q28 -4 28 -16q0 -20 -28 -20l-181 5l-166 -2l-98 1l-50 -2q-33 0 -33 20q0 18 27 20q101 11 143.5 76t132.5 391q-18 1 -296 1l-53 1q-53 0 -105 -64l-136 -173q-84 -108 -84 -172q0 -58 112 -62
q42 -1 42 -20q0 -12 -9 -14.5t-66 -2.5l-298 5l-69 -2q-21 0 -21 13q0 17 30 23q37 7 89 35.5t91.5 65t116.5 129.5l271 326l275 325q82 92 206 246q88 109 107 121q43 14 191 41zM996 560q41 142 83 285q48 177 66 228q10 31 10 55q0 19 -14 19q-16 0 -51 -35t-172 -199
l-201 -242q-64 -78 -64 -89q0 -19 27 -22l25 1zM1433 1574q53 0 95 56q20 26 34 26q19 0 19 -19t-32 -78t-75 -83t-80 -24q-41 0 -122 49q-61 36 -102 36q-58 0 -86 -58q-13 -27 -30 -27q-19 0 -19 20q0 26 51.5 105.5t129.5 79.5q44 0 106 -41q64 -42 111 -42z" />
    <glyph glyph-name="Adieresis" unicode="&#xc4;" horiz-adv-x="1301" 
d="M1375 1332l-135 -515l-132 -496q-26 -87 -26 -151q0 -115 124 -133q28 -4 28 -16q0 -20 -28 -20l-181 5l-166 -2l-98 1l-50 -2q-33 0 -33 20q0 18 27 20q101 11 143.5 76t132.5 391q-18 1 -296 1l-53 1q-53 0 -105 -64l-136 -173q-84 -108 -84 -172q0 -58 112 -62
q42 -1 42 -20q0 -12 -9 -14.5t-66 -2.5l-298 5l-69 -2q-21 0 -21 13q0 17 30 23q37 7 89 35.5t91.5 65t116.5 129.5l271 326l275 325q82 92 206 246q88 109 107 121q43 14 191 41zM996 560q41 142 83 285q48 177 66 228q10 31 10 55q0 19 -14 19q-16 0 -51 -35t-172 -199
l-201 -242q-64 -78 -64 -89q0 -19 27 -22l25 1zM1477 1623q35 0 61 -25t26 -63q0 -36 -25.5 -61.5t-61.5 -25.5q-37 0 -62.5 25.5t-25.5 61.5q0 37 26 62.5t62 25.5zM1125 1621q36 0 61.5 -25.5t25.5 -61.5t-25.5 -61.5t-61.5 -25.5t-61.5 25.5t-25.5 61.5q0 38 26 62.5
t61 24.5z" />
    <glyph glyph-name="Aring" unicode="&#xc5;" horiz-adv-x="1301" 
d="M1240 1304q-55 25 -83 66.5t-28 99.5q0 75 53 128t128 53t128 -53t53 -128q0 -59 -35 -106.5t-90 -65.5l-253 -957q-31 -104 -31 -171q0 -117 124 -133q28 -3 28 -16q0 -20 -28 -20l-170 5l-162 -2q-163 0 -179.5 2t-16.5 19q0 16 27 18q101 11 144 76t132 391
q-18 1 -296 1l-53 1q-55 0 -111 -72l-135 -173q-79 -101 -79 -164q0 -58 112 -62q42 -1 42 -20q0 -12 -9 -14.5t-68 -2.5l-296 5l-69 -2q-21 0 -21 13q0 17 30 23q37 7 89 35.5t91.5 65t116.5 129.5l271 326l275 325q82 92 206 246q88 109 107 121q26 8 56 13zM1311 1591
q-51 0 -87 -36t-36 -87t36 -87t87 -36t87 36.5t36 86.5q0 51 -36 87t-87 36zM996 560q41 142 83 285q48 177 66 228q10 31 10 55q0 19 -14 19q-16 0 -51 -35t-172 -199l-201 -242q-64 -78 -64 -89q0 -19 27 -22l25 1z" />
    <glyph glyph-name="AE" unicode="&#xc6;" horiz-adv-x="1920" 
d="M1423 1239q-84 -204 -179 -584q156 3 201 11.5t101 57.5t92 119q20 39 39 39q15 0 15 -16q0 -12 -29 -98q-74 -222 -105 -443q-3 -24 -19 -24t-16 19l3 78q0 48 -14 92t-47.5 70t-69 31.5t-164.5 7.5q-98 -347 -98 -439q0 -47 28.5 -77.5t84.5 -37.5t292 -7q52 0 85.5 14
t103.5 77t115 127q53 75 67 75q13 0 13 -17q0 -15 -26 -75q-21 -46 -45 -111q-36 -101 -52 -133q-55 -2 -112 -2q-136 0 -372 7l-373 13q-57 0 -156 -11q-28 -3 -48 -3q-29 0 -29 18q0 15 27 18q103 14 132.5 38t43.5 52.5t64.5 198.5t74.5 275q-12 0 -71 3q-103 5 -151 5
q-68 0 -211 -8q-6 -12 -99 -135q-218 -288 -218 -339q0 -67 136 -88q25 -4 25 -18q0 -21 -28 -21q-22 0 -56 2q-53 3 -126 3l-218 -5q-30 0 -30 18q0 15 49 25q55 10 109.5 40t123.5 130l387 530q199 274 224.5 326t25.5 87q0 60 -62.5 82.5t-130.5 22.5q-29 0 -29 17
q0 15 27.5 19t121.5 4l539 -14l554 -12q2 -14 37 -314q0 -19 -17 -19t-34 55q-26 86 -93 152t-128.5 79.5t-224.5 13.5q-15 0 -60 -1zM666 655q69 2 102 2l203 -4q29 0 91 2l93 366q41 162 41 172q0 38 -41 38q-31 0 -78.5 -48.5t-410.5 -527.5z" />
    <glyph glyph-name="Ccedilla" unicode="&#xc7;" horiz-adv-x="1237" 
d="M729 -87q97 -57 97 -142q0 -62 -59.5 -121.5t-169 -87.5t-170.5 -28q-17 0 -17 15q0 16 48 26q187 42 187 133q0 64 -78 104q58 50 123 115q44 45 56 55q-44 -6 -87 -6q-214 0 -325 150.5t-111 348.5q0 209 103 417.5t284.5 322t338.5 113.5q87 0 193 -49q68 -31 92 -31
q40 0 87 53q15 17 28 17q17 0 17 -17q0 -9 -6 -23q-8 -20 -41.5 -166.5t-39.5 -204.5q-3 -26 -22 -26q-10 0 -13 8.5t-5 50.5q-11 190 -99.5 269t-191.5 79q-133 0 -249 -105t-187.5 -308t-71.5 -407q0 -214 94 -318.5t221 -104.5q126 0 242.5 79t184.5 187q18 28 31 28
q18 0 18 -18q0 -23 -60 -99.5t-156.5 -137t-156.5 -75.5q-33 -9 -44.5 -14t-33.5 -30z" />
    <glyph glyph-name="Egrave" unicode="&#xc8;" horiz-adv-x="1387" 
d="M753 1243q-48 -117 -112 -390q-24 -102 -40 -145l67 -2q162 0 240 49t122 162q14 37 26 37q18 0 18 -21q0 -13 -6 -30q-11 -32 -51 -182.5t-49 -206.5q-26 -147 -30.5 -153.5t-16.5 -6.5q-18 0 -18 21l3 70q0 42 -21.5 103.5t-51.5 84t-95.5 26t-146.5 5.5
q-22 -100 -57 -222q-52 -183 -52 -241q0 -95 64 -130.5t186 -35.5q190 0 256 22.5t168.5 116t160.5 168.5q24 30 37 30q14 0 14 -20q0 -57 -127 -354l-46 1l-242 -3l-578 12q-64 0 -165 -7q-98 -7 -143 -7q-29 0 -29 18q0 15 27 20q120 20 157.5 56t90 206t120.5 443.5
t68 349.5q0 155 -161 155q-38 0 -38 17q0 22 30 22l1028 29q14 -67 17 -145q4 -118 6 -134q3 -24 3 -39q0 -20 -15 -20q-16 0 -27 28q-30 77 -80.5 144t-94.5 91.5t-141 24.5q-150 0 -275 -17zM1077 1386q0 -19 -16 -19q-12 0 -38.5 26.5t-119 128t-112.5 130t-20 62.5
q0 22 17 38t44 16q38 0 75.5 -41t103.5 -187t66 -154z" />
    <glyph glyph-name="Eacute" unicode="&#xc9;" horiz-adv-x="1387" 
d="M753 1243q-48 -117 -112 -390q-24 -102 -40 -145l67 -2q162 0 240 49t122 162q14 37 26 37q18 0 18 -21q0 -13 -6 -30q-11 -32 -51 -182.5t-49 -206.5q-26 -147 -30.5 -153.5t-16.5 -6.5q-18 0 -18 21l3 70q0 42 -21.5 103.5t-51.5 84t-95.5 26t-146.5 5.5
q-22 -100 -57 -222q-52 -183 -52 -241q0 -95 64 -130.5t186 -35.5q190 0 256 22.5t168.5 116t160.5 168.5q24 30 37 30q14 0 14 -20q0 -57 -127 -354l-46 1l-242 -3l-578 12q-64 0 -165 -7q-98 -7 -143 -7q-29 0 -29 18q0 15 27 20q120 20 157.5 56t90 206t120.5 443.5
t68 349.5q0 155 -161 155q-38 0 -38 17q0 22 30 22l1028 29q14 -67 17 -145q4 -118 6 -134q3 -24 3 -39q0 -20 -15 -20q-16 0 -27 28q-30 77 -80.5 144t-94.5 91.5t-141 24.5q-150 0 -275 -17zM1291 1739q21 0 40.5 -15t19.5 -38q0 -40 -46.5 -79.5t-187 -124t-156.5 -84.5
t-16 14q0 12 102 126.5t149 157.5t95 43z" />
    <glyph glyph-name="Ecircumflex" unicode="&#xca;" horiz-adv-x="1387" 
d="M753 1243q-48 -117 -112 -390q-24 -102 -40 -145l67 -2q162 0 240 49t122 162q14 37 26 37q18 0 18 -21q0 -13 -6 -30q-11 -32 -51 -182.5t-49 -206.5q-26 -147 -30.5 -153.5t-16.5 -6.5q-18 0 -18 21l3 70q0 42 -21.5 103.5t-51.5 84t-95.5 26t-146.5 5.5
q-22 -100 -57 -222q-52 -183 -52 -241q0 -95 64 -130.5t186 -35.5q190 0 256 22.5t168.5 116t160.5 168.5q24 30 37 30q14 0 14 -20q0 -57 -127 -354l-46 1l-242 -3l-578 12q-64 0 -165 -7q-98 -7 -143 -7q-29 0 -29 18q0 15 27 20q120 20 157.5 56t90 206t120.5 443.5
t68 349.5q0 155 -161 155q-38 0 -38 17q0 22 30 22l1028 29q14 -67 17 -145q4 -118 6 -134q3 -24 3 -39q0 -20 -15 -20q-16 0 -27 28q-30 77 -80.5 144t-94.5 91.5t-141 24.5q-150 0 -275 -17zM1015 1763h110l124 -361q0 -23 -19 -23t-52 54q-36 60 -127 176
q-173 -121 -250 -195q-33 -31 -50 -31q-18 0 -18 15t282 365z" />
    <glyph glyph-name="Edieresis" unicode="&#xcb;" horiz-adv-x="1387" 
d="M753 1243q-48 -117 -112 -390q-24 -102 -40 -145l67 -2q162 0 240 49t122 162q14 37 26 37q18 0 18 -21q0 -13 -6 -30q-11 -32 -51 -182.5t-49 -206.5q-26 -147 -30.5 -153.5t-16.5 -6.5q-18 0 -18 21l3 70q0 42 -21.5 103.5t-51.5 84t-95.5 26t-146.5 5.5
q-22 -100 -57 -222q-52 -183 -52 -241q0 -95 64 -130.5t186 -35.5q190 0 256 22.5t168.5 116t160.5 168.5q24 30 37 30q14 0 14 -20q0 -57 -127 -354l-46 1l-242 -3l-578 12q-64 0 -165 -7q-98 -7 -143 -7q-29 0 -29 18q0 15 27 20q120 20 157.5 56t90 206t120.5 443.5
t68 349.5q0 155 -161 155q-38 0 -38 17q0 22 30 22l1028 29q14 -67 17 -145q4 -118 6 -134q3 -24 3 -39q0 -20 -15 -20q-16 0 -27 28q-30 77 -80.5 144t-94.5 91.5t-141 24.5q-150 0 -275 -17zM1206 1623q35 0 61 -25t26 -63q0 -36 -25.5 -61.5t-61.5 -25.5
q-37 0 -62.5 25.5t-25.5 61.5q0 37 26 62.5t62 25.5zM854 1621q36 0 61.5 -25.5t25.5 -61.5t-25.5 -61.5t-61.5 -25.5t-61.5 25.5t-25.5 61.5q0 38 26 62.5t61 24.5z" />
    <glyph glyph-name="Igrave" unicode="&#xcc;" horiz-adv-x="704" 
d="M908 1290q16 -7 16 -18q0 -17 -22 -19q-83 -8 -117 -31.5t-56 -72t-90.5 -296t-119 -459.5t-50.5 -252q0 -90 106 -99q46 -4 46 -23q0 -18 -38 -18l-348 6l-134 -3q-31 0 -31 18q0 17 48 24q89 12 125 50t62 149l101 389l90 351q36 142 36 164q0 102 -144 112
q-30 3 -30 21q0 12 9 15t50 3zM730 1386q0 -19 -16 -19q-12 0 -38.5 26.5t-119 128t-112.5 130t-20 62.5q0 22 17 38t44 16q38 0 75.5 -41t103.5 -187t66 -154z" />
    <glyph glyph-name="Iacute" unicode="&#xcd;" horiz-adv-x="704" 
d="M908 1290q16 -7 16 -18q0 -17 -22 -19q-83 -8 -117 -31.5t-56 -72t-90.5 -296t-119 -459.5t-50.5 -252q0 -90 106 -99q46 -4 46 -23q0 -18 -38 -18l-348 6l-134 -3q-31 0 -31 18q0 17 48 24q89 12 125 50t62 149l101 389l90 351q36 142 36 164q0 102 -144 112
q-30 3 -30 21q0 12 9 15t50 3zM950 1739q21 0 40.5 -15t19.5 -38q0 -40 -46.5 -79.5t-187 -124t-156.5 -84.5t-16 14q0 12 102 126.5t149 157.5t95 43z" />
    <glyph glyph-name="Icircumflex" unicode="&#xce;" horiz-adv-x="704" 
d="M908 1290q16 -7 16 -18q0 -17 -22 -19q-83 -8 -117 -31.5t-56 -72t-90.5 -296t-119 -459.5t-50.5 -252q0 -90 106 -99q46 -4 46 -23q0 -18 -38 -18l-348 6l-134 -3q-31 0 -31 18q0 17 48 24q89 12 125 50t62 149l101 389l90 351q36 142 36 164q0 102 -144 112
q-30 3 -30 21q0 12 9 15t50 3zM675 1763h110l124 -361q0 -23 -19 -23t-52 54q-36 60 -127 176q-173 -121 -250 -195q-33 -31 -50 -31q-18 0 -18 15t282 365z" />
    <glyph glyph-name="Idieresis" unicode="&#xcf;" horiz-adv-x="704" 
d="M908 1290q16 -7 16 -18q0 -17 -22 -19q-83 -8 -117 -31.5t-56 -72t-90.5 -296t-119 -459.5t-50.5 -252q0 -90 106 -99q46 -4 46 -23q0 -18 -38 -18l-348 6l-134 -3q-31 0 -31 18q0 17 48 24q89 12 125 50t62 149l101 389l90 351q36 142 36 164q0 102 -144 112
q-30 3 -30 21q0 12 9 15t50 3zM865 1623q35 0 61 -25t26 -63q0 -36 -25.5 -61.5t-61.5 -25.5q-37 0 -62.5 25.5t-25.5 61.5q0 37 26 62.5t62 25.5zM513 1621q36 0 61.5 -25.5t25.5 -61.5t-25.5 -61.5t-61.5 -25.5t-61.5 25.5t-25.5 61.5q0 38 26 62.5t61 24.5z" />
    <glyph glyph-name="Eth" unicode="&#xd0;" horiz-adv-x="1515" 
d="M411 638h-202l14 57h199q62 294 62 394q0 68 -44 115.5t-114 47.5q-46 0 -46 17q0 21 33 21l41 -1q94 0 336 17q134 10 193 10q256 0 387.5 -73t213.5 -220t82 -352q0 -301 -202 -487.5t-648 -186.5l-279 7q-11 0 -81 -4q-105 -6 -183 -6q-39 0 -51 -1t-19 -1
q-27 0 -27 18q0 14 40 23q147 35 170.5 91.5t124.5 513.5zM591 638q-64 -309 -64 -436q0 -161 221 -161q171 0 306.5 83t218.5 268t83 348q0 208 -114 370t-350 162q-90 0 -126 -33.5t-85 -217t-79 -326.5h274l-14 -57h-271z" />
    <glyph glyph-name="Ntilde" unicode="&#xd1;" horiz-adv-x="1579" 
d="M718 1283q396 -731 552 -967q236 672 236 783q0 46 -24.5 84t-52.5 51.5t-74 18.5q-50 5 -50 22q0 7 6 12.5t63 6t173 3.5t241 3q28 0 28 -22q0 -14 -19 -16q-87 -10 -135 -48t-82.5 -115t-151.5 -461t-152 -520q-25 -96 -31.5 -109.5t-14.5 -13.5q-15 0 -24 31
q-13 40 -80 150l-286 500q-152 264 -190 321q-98 -274 -157 -492l-54 -197q-24 -86 -24 -126q0 -54 49.5 -91t125.5 -48q41 -6 41 -21q0 -18 -20 -18l-102 1l-142 -1l-234 1l-45 -1q-25 0 -25 18q0 15 48 18q122 9 179 66t143 349.5t133 504.5q21 96 30 122
q-82 108 -116 134.5t-121 40.5q-66 10 -66 26q0 19 55 19q22 0 120 -7q23 -2 117 -4q77 -2 133 -8zM1252 1574q53 0 95 56q20 26 34 26q19 0 19 -19t-32 -78t-75 -83t-80 -24q-41 0 -122 49q-61 36 -102 36q-58 0 -86 -58q-13 -27 -30 -27q-19 0 -19 20q0 26 51.5 105.5
t129.5 79.5q44 0 106 -41q64 -42 111 -42z" />
    <glyph glyph-name="Ograve" unicode="&#xd2;" horiz-adv-x="1408" 
d="M970 1333q240 0 376.5 -150.5t136.5 -385.5q0 -303 -225.5 -560.5t-514.5 -257.5q-237 0 -376 170.5t-139 398.5q0 183 97 363.5t265 301t380 120.5zM1016 1286q-123 0 -256 -101t-228 -327.5t-95 -459.5q0 -155 68 -263t202 -108q143 0 269 116.5t215.5 352.5t89.5 428
q0 129 -64 245.5t-201 116.5zM1082 1386q0 -19 -16 -19q-12 0 -38.5 26.5t-119 128t-112.5 130t-20 62.5q0 22 17 38t44 16q38 0 75.5 -41t103.5 -187t66 -154z" />
    <glyph glyph-name="Oacute" unicode="&#xd3;" horiz-adv-x="1408" 
d="M970 1333q240 0 376.5 -150.5t136.5 -385.5q0 -303 -225.5 -560.5t-514.5 -257.5q-237 0 -376 170.5t-139 398.5q0 183 97 363.5t265 301t380 120.5zM1016 1286q-123 0 -256 -101t-228 -327.5t-95 -459.5q0 -155 68 -263t202 -108q143 0 269 116.5t215.5 352.5t89.5 428
q0 129 -64 245.5t-201 116.5zM1302 1739q21 0 40.5 -15t19.5 -38q0 -40 -46.5 -79.5t-187 -124t-156.5 -84.5t-16 14q0 12 102 126.5t149 157.5t95 43z" />
    <glyph glyph-name="Ocircumflex" unicode="&#xd4;" horiz-adv-x="1408" 
d="M970 1333q240 0 376.5 -150.5t136.5 -385.5q0 -303 -225.5 -560.5t-514.5 -257.5q-237 0 -376 170.5t-139 398.5q0 183 97 363.5t265 301t380 120.5zM1016 1286q-123 0 -256 -101t-228 -327.5t-95 -459.5q0 -155 68 -263t202 -108q143 0 269 116.5t215.5 352.5t89.5 428
q0 129 -64 245.5t-201 116.5zM1027 1763h110l124 -361q0 -23 -19 -23t-52 54q-36 60 -127 176q-173 -121 -250 -195q-33 -31 -50 -31q-18 0 -18 15t282 365z" />
    <glyph glyph-name="Otilde" unicode="&#xd5;" horiz-adv-x="1408" 
d="M970 1333q240 0 376.5 -150.5t136.5 -385.5q0 -303 -225.5 -560.5t-514.5 -257.5q-237 0 -376 170.5t-139 398.5q0 183 97 363.5t265 301t380 120.5zM1016 1286q-123 0 -256 -101t-228 -327.5t-95 -459.5q0 -155 68 -263t202 -108q143 0 269 116.5t215.5 352.5t89.5 428
q0 129 -64 245.5t-201 116.5zM1167 1574q53 0 95 56q20 26 34 26q19 0 19 -19t-32 -78t-75 -83t-80 -24q-41 0 -122 49q-61 36 -102 36q-58 0 -86 -58q-13 -27 -30 -27q-19 0 -19 20q0 26 51.5 105.5t129.5 79.5q44 0 106 -41q64 -42 111 -42z" />
    <glyph glyph-name="Odieresis" unicode="&#xd6;" horiz-adv-x="1408" 
d="M970 1333q240 0 376.5 -150.5t136.5 -385.5q0 -303 -225.5 -560.5t-514.5 -257.5q-237 0 -376 170.5t-139 398.5q0 183 97 363.5t265 301t380 120.5zM1016 1286q-123 0 -256 -101t-228 -327.5t-95 -459.5q0 -155 68 -263t202 -108q143 0 269 116.5t215.5 352.5t89.5 428
q0 129 -64 245.5t-201 116.5zM1217 1623q35 0 61 -25t26 -63q0 -36 -25.5 -61.5t-61.5 -25.5q-37 0 -62.5 25.5t-25.5 61.5q0 37 26 62.5t62 25.5zM865 1621q36 0 61.5 -25.5t25.5 -61.5t-25.5 -61.5t-61.5 -25.5t-61.5 25.5t-25.5 61.5q0 38 26 62.5t61 24.5z" />
    <glyph glyph-name="multiply" unicode="&#xd7;" horiz-adv-x="1365" 
d="M318 953l61 63l426 -427l426 427l61 -63l-425 -426l421 -422l-62 -62l-421 422l-424 -422l-62 62l423 422z" />
    <glyph glyph-name="Oslash" unicode="&#xd8;" horiz-adv-x="1408" 
d="M1322 1208q161 -157 161 -414q0 -204 -109.5 -396t-277.5 -305.5t-352 -113.5q-182 0 -308 101l-104 -133l-37 27l107 137q-174 177 -174 438q0 287 219.5 535.5t522.5 248.5q182 0 316 -95l87 111l38 -27zM472 199l751 959q-67 128 -202 128q-149 0 -286 -122.5
t-217.5 -340t-80.5 -424.5q0 -105 35 -200zM1245 1110l-752 -957q71 -126 213 -126q243 0 409 304t166 598q0 89 -36 181z" />
    <glyph glyph-name="Ugrave" unicode="&#xd9;" horiz-adv-x="1493" 
d="M491 1145q0 39 -18 66.5t-39 36.5t-88 18q-22 3 -22 19q0 20 24 20q28 0 78 -5q125 -13 233 -13q75 0 151 9q43 4 69 4q38 0 38 -25q0 -11 -7 -14.5t-46 -8.5q-62 -7 -92 -25.5t-64.5 -80.5t-74.5 -236t-73 -347t-33 -255q0 -108 83 -190t236 -82q168 0 274 103t195 426
t89 468q0 103 -54 161t-144 64q-25 2 -25 20q0 19 44 19q53 0 128 -5q112 -6 149 -6q52 0 136 7q11 1 19 1q25 0 25 -20q0 -16 -44 -21q-67 -9 -103.5 -44.5t-51.5 -86.5t-38 -209q-28 -197 -120.5 -493t-238 -371.5t-312.5 -75.5q-202 0 -320.5 83.5t-118.5 224.5
q0 88 72 425q84 398 84 439zM1125 1386q0 -19 -16 -19q-12 0 -38.5 26.5t-119 128t-112.5 130t-20 62.5q0 22 17 38t44 16q38 0 75.5 -41t103.5 -187t66 -154z" />
    <glyph glyph-name="Uacute" unicode="&#xda;" horiz-adv-x="1493" 
d="M491 1145q0 39 -18 66.5t-39 36.5t-88 18q-22 3 -22 19q0 20 24 20q28 0 78 -5q125 -13 233 -13q75 0 151 9q43 4 69 4q38 0 38 -25q0 -11 -7 -14.5t-46 -8.5q-62 -7 -92 -25.5t-64.5 -80.5t-74.5 -236t-73 -347t-33 -255q0 -108 83 -190t236 -82q168 0 274 103t195 426
t89 468q0 103 -54 161t-144 64q-25 2 -25 20q0 19 44 19q53 0 128 -5q112 -6 149 -6q52 0 136 7q11 1 19 1q25 0 25 -20q0 -16 -44 -21q-67 -9 -103.5 -44.5t-51.5 -86.5t-38 -209q-28 -197 -120.5 -493t-238 -371.5t-312.5 -75.5q-202 0 -320.5 83.5t-118.5 224.5
q0 88 72 425q84 398 84 439zM1345 1739q21 0 40.5 -15t19.5 -38q0 -40 -46.5 -79.5t-187 -124t-156.5 -84.5t-16 14q0 12 102 126.5t149 157.5t95 43z" />
    <glyph glyph-name="Ucircumflex" unicode="&#xdb;" horiz-adv-x="1493" 
d="M491 1145q0 39 -18 66.5t-39 36.5t-88 18q-22 3 -22 19q0 20 24 20q28 0 78 -5q125 -13 233 -13q75 0 151 9q43 4 69 4q38 0 38 -25q0 -11 -7 -14.5t-46 -8.5q-62 -7 -92 -25.5t-64.5 -80.5t-74.5 -236t-73 -347t-33 -255q0 -108 83 -190t236 -82q168 0 274 103t195 426
t89 468q0 103 -54 161t-144 64q-25 2 -25 20q0 19 44 19q53 0 128 -5q112 -6 149 -6q52 0 136 7q11 1 19 1q25 0 25 -20q0 -16 -44 -21q-67 -9 -103.5 -44.5t-51.5 -86.5t-38 -209q-28 -197 -120.5 -493t-238 -371.5t-312.5 -75.5q-202 0 -320.5 83.5t-118.5 224.5
q0 88 72 425q84 398 84 439zM1069 1763h110l124 -361q0 -23 -19 -23t-52 54q-36 60 -127 176q-173 -121 -250 -195q-33 -31 -50 -31q-18 0 -18 15t282 365z" />
    <glyph glyph-name="Udieresis" unicode="&#xdc;" horiz-adv-x="1493" 
d="M491 1145q0 39 -18 66.5t-39 36.5t-88 18q-22 3 -22 19q0 20 24 20q28 0 78 -5q125 -13 233 -13q75 0 151 9q43 4 69 4q38 0 38 -25q0 -11 -7 -14.5t-46 -8.5q-62 -7 -92 -25.5t-64.5 -80.5t-74.5 -236t-73 -347t-33 -255q0 -108 83 -190t236 -82q168 0 274 103t195 426
t89 468q0 103 -54 161t-144 64q-25 2 -25 20q0 19 44 19q53 0 128 -5q112 -6 149 -6q52 0 136 7q11 1 19 1q25 0 25 -20q0 -16 -44 -21q-67 -9 -103.5 -44.5t-51.5 -86.5t-38 -209q-28 -197 -120.5 -493t-238 -371.5t-312.5 -75.5q-202 0 -320.5 83.5t-118.5 224.5
q0 88 72 425q84 398 84 439zM1260 1623q35 0 61 -25t26 -63q0 -36 -25.5 -61.5t-61.5 -25.5q-37 0 -62.5 25.5t-25.5 61.5q0 37 26 62.5t62 25.5zM908 1621q36 0 61.5 -25.5t25.5 -61.5t-25.5 -61.5t-61.5 -25.5t-61.5 25.5t-25.5 61.5q0 38 26 62.5t61 24.5z" />
    <glyph glyph-name="Yacute" unicode="&#xdd;" horiz-adv-x="1429" 
d="M887 704l112 207q63 115 149 215t179.5 152t180.5 52q61 0 99.5 -43t38.5 -91q0 -43 -26.5 -80.5t-77.5 -37.5q-35 0 -54.5 18.5t-59.5 95.5q-22 43 -57 43q-72 0 -201 -152t-268 -468t-139 -462q0 -61 39 -93t102 -33q66 0 76 -4t10 -15q0 -18 -39 -18l-393 10
q-90 0 -168 -6q-48 -4 -79 -4q-32 0 -32 21q0 11 10 14t61 5q107 3 171 75.5t151 391t87 481.5q0 133 -44.5 197t-106.5 64q-60 0 -120 -38.5t-91.5 -88.5t-60.5 -143l-20 -63q-5 -14 -17 -14q-17 0 -17 18q0 60 52 172t142.5 174t178.5 62q99 0 174.5 -94.5t75.5 -265.5
q0 -133 -18 -254zM1331 1739q21 0 40.5 -15t19.5 -38q0 -40 -46.5 -79.5t-187 -124t-156.5 -84.5t-16 14q0 12 102 126.5t149 157.5t95 43z" />
    <glyph glyph-name="Thorn" unicode="&#xde;" horiz-adv-x="1237" 
d="M521 305q-21 -74 -21 -140q0 -113 141 -130q48 -7 48 -25q0 -20 -32 -20q-25 0 -92 8q-58 7 -111 7q-52 0 -108 -3q-95 -5 -116 -5q-103 0 -140.5 5t-37.5 21q0 17 26 17q79 3 124 30t79.5 98.5t65.5 196.5l136 546q30 123 30 202q0 48 -30.5 91.5t-88.5 50.5
q-48 6 -48 25q0 17 29 17q68 0 166 -7q56 -4 99 -4q58 0 121 4q103 5 140 5q60 0 60 -27q0 -22 -30 -22q-96 0 -136.5 -37t-89.5 -214q69 7 159 7q288 0 394.5 -93t106.5 -225q0 -172 -156.5 -279.5t-486.5 -107.5q-82 0 -201 8zM533 347q53 -9 130 -9q168 0 267.5 36.5
t161 130t61.5 191.5q0 106 -74.5 184.5t-198.5 78.5q-84 0 -194 -26z" />
    <glyph glyph-name="germandbls" unicode="&#xdf;" horiz-adv-x="939" 
d="M816 1373q120 0 188 -64.5t68 -163.5q0 -63 -33.5 -123.5t-81 -95.5t-163.5 -92q-48 -24 -48 -35q0 -10 19 -15q22 -4 83.5 -33t90 -97t28.5 -148q0 -139 -71.5 -274t-166 -196t-177.5 -61q-56 0 -99 35t-43 90q0 40 24 64t60 24q33 0 50 -23t17 -49l-8 -52
q0 -21 11 -31.5t33 -10.5q79 0 154 148t75 337q0 234 -163 268q-43 9 -43 22q0 14 25 20q146 36 229 136.5t83 225.5q0 64 -32 107t-91 43q-68 0 -133 -61.5t-118.5 -212t-148.5 -497.5q-141 -521 -207.5 -708t-184.5 -291.5t-248 -104.5q-96 0 -153 51t-57 119
q0 48 29.5 73.5t65.5 25.5q35 0 57.5 -21t22.5 -54q0 -16 -12 -42q-13 -28 -13 -44q0 -32 20 -48.5t59 -16.5q120 0 212.5 170.5t277.5 882.5q89 344 150 501t161.5 239.5t201.5 82.5z" />
    <glyph glyph-name="agrave" unicode="&#xe0;" horiz-adv-x="939" 
d="M957 838q-28 -62 -113 -332l-88 -279q-28 -76 -28 -130q0 -34 33 -34q23 0 67.5 32.5t86.5 82.5q28 33 39 33q17 0 17 -17q0 -27 -109 -119.5t-194 -92.5q-58 0 -58 79q0 55 7 140q-155 -210 -324 -210q-73 0 -108 53.5t-35 120.5q0 193 192.5 443.5t363.5 250.5
q45 0 71.5 -31t33.5 -94q18 46 57 120q32 -5 61 -10q21 -5 28 -6zM650 804q-58 0 -142 -83.5t-149 -245.5t-65 -270q0 -64 23 -96.5t68 -32.5q116 0 234.5 212t118.5 384q0 56 -24.5 94t-63.5 38zM901 963q0 -19 -16 -19q-12 0 -38.5 26.5t-119 128t-112.5 130t-20 62.5
q0 22 17 38t44 16q38 0 75.5 -41t103.5 -187t66 -154z" />
    <glyph glyph-name="aacute" unicode="&#xe1;" horiz-adv-x="939" 
d="M957 838q-28 -62 -113 -332l-88 -279q-28 -76 -28 -130q0 -34 33 -34q23 0 67.5 32.5t86.5 82.5q28 33 39 33q17 0 17 -17q0 -27 -109 -119.5t-194 -92.5q-58 0 -58 79q0 55 7 140q-155 -210 -324 -210q-73 0 -108 53.5t-35 120.5q0 193 192.5 443.5t363.5 250.5
q45 0 71.5 -31t33.5 -94q18 46 57 120q32 -5 61 -10q21 -5 28 -6zM650 804q-58 0 -142 -83.5t-149 -245.5t-65 -270q0 -64 23 -96.5t68 -32.5q116 0 234.5 212t118.5 384q0 56 -24.5 94t-63.5 38zM907 1285q21 0 40.5 -15t19.5 -38q0 -40 -46.5 -79.5t-187 -124
t-156.5 -84.5t-16 14q0 12 102 126.5t149 157.5t95 43z" />
    <glyph glyph-name="acircumflex" unicode="&#xe2;" horiz-adv-x="939" 
d="M957 838q-28 -62 -113 -332l-88 -279q-28 -76 -28 -130q0 -34 33 -34q23 0 67.5 32.5t86.5 82.5q28 33 39 33q17 0 17 -17q0 -27 -109 -119.5t-194 -92.5q-58 0 -58 79q0 55 7 140q-155 -210 -324 -210q-73 0 -108 53.5t-35 120.5q0 193 192.5 443.5t363.5 250.5
q45 0 71.5 -31t33.5 -94q18 46 57 120q32 -5 61 -10q21 -5 28 -6zM650 804q-58 0 -142 -83.5t-149 -245.5t-65 -270q0 -64 23 -96.5t68 -32.5q116 0 234.5 212t118.5 384q0 56 -24.5 94t-63.5 38zM732 1327h110l124 -361q0 -23 -19 -23t-52 54q-36 60 -127 176
q-173 -121 -250 -195q-33 -31 -50 -31q-18 0 -18 15t282 365z" />
    <glyph glyph-name="atilde" unicode="&#xe3;" horiz-adv-x="939" 
d="M957 838q-28 -62 -113 -332l-88 -279q-28 -76 -28 -130q0 -34 33 -34q23 0 67.5 32.5t86.5 82.5q28 33 39 33q17 0 17 -17q0 -27 -109 -119.5t-194 -92.5q-58 0 -58 79q0 55 7 140q-155 -210 -324 -210q-73 0 -108 53.5t-35 120.5q0 193 192.5 443.5t363.5 250.5
q45 0 71.5 -31t33.5 -94q18 46 57 120q32 -5 61 -10q21 -5 28 -6zM650 804q-58 0 -142 -83.5t-149 -245.5t-65 -270q0 -64 23 -96.5t68 -32.5q116 0 234.5 212t118.5 384q0 56 -24.5 94t-63.5 38zM852 1080q53 0 95 56q20 26 34 26q19 0 19 -19t-32 -78t-75 -83t-80 -24
q-41 0 -122 49q-61 36 -102 36q-58 0 -86 -58q-13 -27 -30 -27q-19 0 -19 20q0 26 51.5 105.5t129.5 79.5q44 0 106 -41q64 -42 111 -42z" />
    <glyph glyph-name="adieresis" unicode="&#xe4;" horiz-adv-x="939" 
d="M957 838q-28 -62 -113 -332l-88 -279q-28 -76 -28 -130q0 -34 33 -34q23 0 67.5 32.5t86.5 82.5q28 33 39 33q17 0 17 -17q0 -27 -109 -119.5t-194 -92.5q-58 0 -58 79q0 55 7 140q-155 -210 -324 -210q-73 0 -108 53.5t-35 120.5q0 193 192.5 443.5t363.5 250.5
q45 0 71.5 -31t33.5 -94q18 46 57 120q32 -5 61 -10q21 -5 28 -6zM650 804q-58 0 -142 -83.5t-149 -245.5t-65 -270q0 -64 23 -96.5t68 -32.5q116 0 234.5 212t118.5 384q0 56 -24.5 94t-63.5 38zM894 1142q35 0 61 -25t26 -63q0 -36 -25.5 -61.5t-61.5 -25.5
q-37 0 -62.5 25.5t-25.5 61.5q0 37 26 62.5t62 25.5zM542 1140q36 0 61.5 -25.5t25.5 -61.5t-25.5 -61.5t-61.5 -25.5t-61.5 25.5t-25.5 61.5q0 38 26 62.5t61 24.5z" />
    <glyph glyph-name="aring" unicode="&#xe5;" horiz-adv-x="939" 
d="M957 838q-28 -62 -113 -332l-88 -279q-28 -76 -28 -130q0 -34 33 -34q23 0 67.5 32.5t86.5 82.5q28 33 39 33q17 0 17 -17q0 -27 -109 -119.5t-194 -92.5q-58 0 -58 79q0 55 7 140q-155 -210 -324 -210q-73 0 -108 53.5t-35 120.5q0 193 192.5 443.5t363.5 250.5
q45 0 71.5 -31t33.5 -94q18 46 57 120q32 -5 61 -10q21 -5 28 -6zM650 804q-58 0 -142 -83.5t-149 -245.5t-65 -270q0 -64 23 -96.5t68 -32.5q116 0 234.5 212t118.5 384q0 56 -24.5 94t-63.5 38zM741 1261q62 0 107.5 -44t45.5 -109q0 -64 -44.5 -108.5t-108.5 -44.5
q-63 0 -108 45t-45 108q0 65 45.5 109t107.5 44zM744 1199q-37 0 -63.5 -26.5t-26.5 -63.5t26.5 -64t63.5 -27t64 26.5t27 64.5q0 39 -27 64.5t-64 25.5z" />
    <glyph glyph-name="ae" unicode="&#xe6;" horiz-adv-x="1195" 
d="M628 224q-98 -119 -184 -179t-160 -60q-58 0 -94 34.5t-36 101.5q0 142 131 320.5t356.5 292.5t469.5 114q101 0 142 -37.5t41 -79.5q0 -92 -150 -194.5t-349 -148.5q-27 -121 -27 -185q0 -89 33 -121t63 -32q42 0 120 58.5t126 115.5q34 39 46 39q17 0 17 -17
q0 -20 -71.5 -92t-155.5 -120t-148 -48q-77 0 -124 50t-47 141q0 16 1 47zM806 430q118 34 189.5 70.5t116 105.5t44.5 133q0 34 -17 51t-52 17q-142 0 -281 -377zM969 794q-145 -16 -305.5 -99t-264.5 -245.5t-104 -267.5q0 -48 24 -78.5t56 -30.5q27 0 56.5 16.5
t111.5 101.5t97 104q37 162 135 296.5t194 202.5z" />
    <glyph glyph-name="ccedilla" unicode="&#xe7;" 
d="M393 -19l-40 -55q70 -47 70 -117q0 -68 -56.5 -118.5t-137 -75.5t-123.5 -25q-22 0 -22 18q0 13 21 18q125 28 155 56q29 28 29 62q0 45 -74 100q51 54 113 131q-86 0 -143.5 54.5t-57.5 148.5q0 223 184 449t355 226q57 0 94.5 -39t37.5 -84q0 -34 -20 -55t-45 -21
q-27 0 -41.5 17t-26.5 62q-13 47 -25 56t-30 9q-63 0 -145.5 -97.5t-131.5 -252.5t-49 -255q0 -82 27 -123t81 -41q59 0 129 58.5t116 126.5q24 35 40 35t16 -18q0 -28 -90 -127t-210 -123z" />
    <glyph glyph-name="egrave" unicode="&#xe8;" horiz-adv-x="704" 
d="M316 353q-32 -138 -32 -209q0 -43 24.5 -77.5t66.5 -34.5q60 0 127 49.5t113 120.5q23 35 42 35t19 -18q0 -50 -110.5 -144.5t-230.5 -94.5q-92 0 -144.5 67.5t-52.5 155.5q0 191 173.5 423t338.5 232q58 0 96.5 -41t38.5 -90q0 -98 -108.5 -200t-360.5 -174zM331 398
q151 66 252.5 169.5t101.5 190.5q0 19 -14.5 37.5t-39.5 18.5q-65 0 -149 -87.5t-151 -328.5zM784 963q0 -19 -16 -19q-12 0 -38.5 26.5t-119 128t-112.5 130t-20 62.5q0 22 17 38t44 16q38 0 75.5 -41t103.5 -187t66 -154z" />
    <glyph glyph-name="eacute" unicode="&#xe9;" horiz-adv-x="704" 
d="M316 353q-32 -138 -32 -209q0 -43 24.5 -77.5t66.5 -34.5q60 0 127 49.5t113 120.5q23 35 42 35t19 -18q0 -50 -110.5 -144.5t-230.5 -94.5q-92 0 -144.5 67.5t-52.5 155.5q0 191 173.5 423t338.5 232q58 0 96.5 -41t38.5 -90q0 -98 -108.5 -200t-360.5 -174zM331 398
q151 66 252.5 169.5t101.5 190.5q0 19 -14.5 37.5t-39.5 18.5q-65 0 -149 -87.5t-151 -328.5zM790 1285q21 0 40.5 -15t19.5 -38q0 -40 -46.5 -79.5t-187 -124t-156.5 -84.5t-16 14q0 12 102 126.5t149 157.5t95 43z" />
    <glyph glyph-name="ecircumflex" unicode="&#xea;" horiz-adv-x="704" 
d="M316 353q-32 -138 -32 -209q0 -43 24.5 -77.5t66.5 -34.5q60 0 127 49.5t113 120.5q23 35 42 35t19 -18q0 -50 -110.5 -144.5t-230.5 -94.5q-92 0 -144.5 67.5t-52.5 155.5q0 191 173.5 423t338.5 232q58 0 96.5 -41t38.5 -90q0 -98 -108.5 -200t-360.5 -174zM331 398
q151 66 252.5 169.5t101.5 190.5q0 19 -14.5 37.5t-39.5 18.5q-65 0 -149 -87.5t-151 -328.5zM627 1327h110l124 -361q0 -23 -19 -23t-52 54q-36 60 -127 176q-173 -121 -250 -195q-33 -31 -50 -31q-18 0 -18 15t282 365z" />
    <glyph glyph-name="edieresis" unicode="&#xeb;" horiz-adv-x="704" 
d="M316 353q-32 -138 -32 -209q0 -43 24.5 -77.5t66.5 -34.5q60 0 127 49.5t113 120.5q23 35 42 35t19 -18q0 -50 -110.5 -144.5t-230.5 -94.5q-92 0 -144.5 67.5t-52.5 155.5q0 191 173.5 423t338.5 232q58 0 96.5 -41t38.5 -90q0 -98 -108.5 -200t-360.5 -174zM331 398
q151 66 252.5 169.5t101.5 190.5q0 19 -14.5 37.5t-39.5 18.5q-65 0 -149 -87.5t-151 -328.5zM753 1142q35 0 61 -25t26 -63q0 -36 -25.5 -61.5t-61.5 -25.5q-37 0 -62.5 25.5t-25.5 61.5q0 37 26 62.5t62 25.5zM401 1140q36 0 61.5 -25.5t25.5 -61.5t-25.5 -61.5
t-61.5 -25.5t-61.5 25.5t-25.5 61.5q0 38 26 62.5t61 24.5z" />
    <glyph glyph-name="igrave" unicode="&#xec;" horiz-adv-x="576" 
d="M316 61q0 -17 7.5 -25.5t21.5 -8.5q31 0 86 35t105 87q22 23 35 23q18 0 18 -16q0 -35 -101 -107.5t-187 -72.5q-55 0 -83.5 22.5t-28.5 52.5q0 45 111 315q141 340 141 386q0 18 -6.5 26.5t-20.5 8.5q-43 0 -138 -92q-37 -36 -52 -36q-14 0 -14 16q0 26 105 106.5
t187 80.5q34 0 58.5 -25.5t24.5 -54.5q0 -36 -12.5 -71t-149.5 -360q-107 -273 -107 -290zM698 963q0 -19 -16 -19q-12 0 -38.5 26.5t-119 128t-112.5 130t-20 62.5q0 22 17 38t44 16q38 0 75.5 -41t103.5 -187t66 -154z" />
    <glyph glyph-name="iacute" unicode="&#xed;" horiz-adv-x="576" 
d="M316 61q0 -17 7.5 -25.5t21.5 -8.5q31 0 86 35t105 87q22 23 35 23q18 0 18 -16q0 -35 -101 -107.5t-187 -72.5q-55 0 -83.5 22.5t-28.5 52.5q0 45 111 315q141 340 141 386q0 18 -6.5 26.5t-20.5 8.5q-43 0 -138 -92q-37 -36 -52 -36q-14 0 -14 16q0 26 105 106.5
t187 80.5q34 0 58.5 -25.5t24.5 -54.5q0 -36 -12.5 -71t-149.5 -360q-107 -273 -107 -290zM728 1285q21 0 40.5 -15t19.5 -38q0 -40 -46.5 -79.5t-187 -124t-156.5 -84.5t-16 14q0 12 102 126.5t149 157.5t95 43z" />
    <glyph glyph-name="icircumflex" unicode="&#xee;" horiz-adv-x="576" 
d="M316 61q0 -17 7.5 -25.5t21.5 -8.5q31 0 86 35t105 87q22 23 35 23q18 0 18 -16q0 -35 -101 -107.5t-187 -72.5q-55 0 -83.5 22.5t-28.5 52.5q0 45 111 315q141 340 141 386q0 18 -6.5 26.5t-20.5 8.5q-43 0 -138 -92q-37 -36 -52 -36q-14 0 -14 16q0 26 105 106.5
t187 80.5q34 0 58.5 -25.5t24.5 -54.5q0 -36 -12.5 -71t-149.5 -360q-107 -273 -107 -290zM504 1327h110l124 -361q0 -23 -19 -23t-52 54q-36 60 -127 176q-173 -121 -250 -195q-33 -31 -50 -31q-18 0 -18 15t282 365z" />
    <glyph glyph-name="idieresis" unicode="&#xef;" horiz-adv-x="576" 
d="M316 61q0 -17 7.5 -25.5t21.5 -8.5q31 0 86 35t105 87q22 23 35 23q18 0 18 -16q0 -35 -101 -107.5t-187 -72.5q-55 0 -83.5 22.5t-28.5 52.5q0 45 111 315q141 340 141 386q0 18 -6.5 26.5t-20.5 8.5q-43 0 -138 -92q-37 -36 -52 -36q-14 0 -14 16q0 26 105 106.5
t187 80.5q34 0 58.5 -25.5t24.5 -54.5q0 -36 -12.5 -71t-149.5 -360q-107 -273 -107 -290zM690 1142q35 0 61 -25t26 -63q0 -36 -25.5 -61.5t-61.5 -25.5q-37 0 -62.5 25.5t-25.5 61.5q0 37 26 62.5t62 25.5zM338 1140q36 0 61.5 -25.5t25.5 -61.5t-25.5 -61.5t-61.5 -25.5
t-61.5 25.5t-25.5 61.5q0 38 26 62.5t61 24.5z" />
    <glyph glyph-name="eth" unicode="&#xf0;" horiz-adv-x="853" 
d="M393 1336h93q19 -13 113 -107l147 107l35 -48l-144 -101q249 -289 249 -639q0 -265 -152 -420t-327 -155q-108 0 -179.5 102t-71.5 234q0 186 142 364t298 178q34 0 67.5 -13.5t66.5 -40.5q-24 170 -148 347l-166 -119l-34 45l163 117q-54 72 -152 149zM300 216
q0 -89 32.5 -146t92.5 -57q64 0 140 81.5t129.5 238t53.5 268.5q0 77 -38.5 138t-104.5 61q-63 0 -130 -78.5t-121 -230.5t-54 -275z" />
    <glyph glyph-name="ntilde" unicode="&#xf1;" horiz-adv-x="981" 
d="M487 502q106 177 199 265.5t173 88.5q47 0 72 -33.5t25 -79.5q0 -57 -16.5 -117.5t-82.5 -244.5q-89 -247 -89 -291q0 -33 29 -33q26 0 80.5 44.5t80.5 87.5q26 45 43 45t17 -20q0 -41 -102.5 -140.5t-196.5 -99.5q-92 0 -92 77q0 80 147 464q57 148 57 222
q0 23 -8.5 34.5t-26.5 11.5q-30 0 -112.5 -76.5t-187.5 -271.5t-172 -358q-41 -101 -54 -101q-98 0 -98 26l3 10l169 489q66 179 66 248q0 30 -28 30q-25 0 -81 -49.5t-89 -93.5q-26 -34 -42 -34q-15 0 -15 16q0 32 108.5 136t208.5 104q32 0 49 -23t17 -48q0 -40 -51 -285z
M825 1080q53 0 95 56q20 26 34 26q19 0 19 -19t-32 -78t-75 -83t-80 -24q-41 0 -122 49q-61 36 -102 36q-58 0 -86 -58q-13 -27 -30 -27q-19 0 -19 20q0 26 51.5 105.5t129.5 79.5q44 0 106 -41q64 -42 111 -42z" />
    <glyph glyph-name="ograve" unicode="&#xf2;" horiz-adv-x="853" 
d="M596 853q133 0 209 -102t76 -241q0 -195 -137 -363.5t-327 -168.5q-140 0 -202 103t-62 216q0 149 77 289t179 203.5t187 63.5zM615 812q-56 0 -123.5 -65t-133 -234t-65.5 -317q0 -72 33 -124t89 -52q63 0 136.5 75t135.5 232t62 298q0 94 -33.5 140.5t-100.5 46.5z
M852 963q0 -19 -16 -19q-12 0 -38.5 26.5t-119 128t-112.5 130t-20 62.5q0 22 17 38t44 16q38 0 75.5 -41t103.5 -187t66 -154z" />
    <glyph glyph-name="oacute" unicode="&#xf3;" horiz-adv-x="853" 
d="M596 853q133 0 209 -102t76 -241q0 -195 -137 -363.5t-327 -168.5q-140 0 -202 103t-62 216q0 149 77 289t179 203.5t187 63.5zM615 812q-56 0 -123.5 -65t-133 -234t-65.5 -317q0 -72 33 -124t89 -52q63 0 136.5 75t135.5 232t62 298q0 94 -33.5 140.5t-100.5 46.5z
M864 1285q21 0 40.5 -15t19.5 -38q0 -40 -46.5 -79.5t-187 -124t-156.5 -84.5t-16 14q0 12 102 126.5t149 157.5t95 43z" />
    <glyph glyph-name="ocircumflex" unicode="&#xf4;" horiz-adv-x="853" 
d="M596 853q133 0 209 -102t76 -241q0 -195 -137 -363.5t-327 -168.5q-140 0 -202 103t-62 216q0 149 77 289t179 203.5t187 63.5zM615 812q-56 0 -123.5 -65t-133 -234t-65.5 -317q0 -72 33 -124t89 -52q63 0 136.5 75t135.5 232t62 298q0 94 -33.5 140.5t-100.5 46.5z
M641 1327h110l124 -361q0 -23 -19 -23t-52 54q-36 60 -127 176q-173 -121 -250 -195q-33 -31 -50 -31q-18 0 -18 15t282 365z" />
    <glyph glyph-name="otilde" unicode="&#xf5;" horiz-adv-x="853" 
d="M596 853q133 0 209 -102t76 -241q0 -195 -137 -363.5t-327 -168.5q-140 0 -202 103t-62 216q0 149 77 289t179 203.5t187 63.5zM615 812q-56 0 -123.5 -65t-133 -234t-65.5 -317q0 -72 33 -124t89 -52q63 0 136.5 75t135.5 232t62 298q0 94 -33.5 140.5t-100.5 46.5z
M761 1080q53 0 95 56q20 26 34 26q19 0 19 -19t-32 -78t-75 -83t-80 -24q-41 0 -122 49q-61 36 -102 36q-58 0 -86 -58q-13 -27 -30 -27q-19 0 -19 20q0 26 51.5 105.5t129.5 79.5q44 0 106 -41q64 -42 111 -42z" />
    <glyph glyph-name="odieresis" unicode="&#xf6;" horiz-adv-x="853" 
d="M596 853q133 0 209 -102t76 -241q0 -195 -137 -363.5t-327 -168.5q-140 0 -202 103t-62 216q0 149 77 289t179 203.5t187 63.5zM615 812q-56 0 -123.5 -65t-133 -234t-65.5 -317q0 -72 33 -124t89 -52q63 0 136.5 75t135.5 232t62 298q0 94 -33.5 140.5t-100.5 46.5z
M827 1142q35 0 61 -25t26 -63q0 -36 -25.5 -61.5t-61.5 -25.5q-37 0 -62.5 25.5t-25.5 61.5q0 37 26 62.5t62 25.5zM475 1140q36 0 61.5 -25.5t25.5 -61.5t-25.5 -61.5t-61.5 -25.5t-61.5 25.5t-25.5 61.5q0 38 26 62.5t61 24.5z" />
    <glyph glyph-name="divide" unicode="&#xf7;" horiz-adv-x="1365" 
d="M738 947q0 24 19 40.5t44 16.5t42.5 -18t17.5 -43q0 -26 -17.5 -44.5t-42.5 -18.5q-26 0 -44.5 19.5t-18.5 47.5zM266 570h1074v-86h-1074v86zM863 120q0 -25 -18.5 -43.5t-43.5 -18.5q-26 0 -44 18t-18 44t18 44t44 18q25 0 43.5 -18t18.5 -44z" />
    <glyph glyph-name="oslash" unicode="&#xf8;" horiz-adv-x="853" 
d="M813 740q69 -100 69 -224q0 -203 -137.5 -370.5t-326.5 -167.5q-60 0 -106 19.5t-77 57.5l-64 -76l-32 28l71 84q-56 94 -56 205q0 213 140 385t311 172q53 0 98 -19.5t83 -59.5l72 85l34 -25zM293 190l444 525q-15 49 -44.5 73t-72.5 24q-119 0 -223 -210t-104 -412z
M748 663l-447 -530q14 -56 42.5 -84.5t72.5 -28.5q114 0 224 203t110 406q0 14 -2 34z" />
    <glyph glyph-name="ugrave" unicode="&#xf9;" horiz-adv-x="960" 
d="M998 841q-16 -51 -67 -187q-174 -456 -174 -559q0 -14 6 -21t18 -7q31 0 84 53q52 53 83 101q23 37 40 37q16 0 16 -16q0 -41 -107.5 -150.5t-189.5 -109.5q-35 0 -52.5 24.5t-17.5 73.5q0 99 42 239q-219 -336 -371 -336q-38 0 -67.5 32.5t-29.5 76.5t11 89.5t82 258.5
t86 249q18 43 18 74q0 11 -5 16.5t-16 5.5q-43 0 -157 -135q-44 -53 -57 -53q-14 0 -14 14q0 35 104.5 138.5t183.5 103.5q37 0 64.5 -30t27.5 -69q0 -57 -65 -217q-132 -326 -132 -429q0 -19 10.5 -35t25.5 -16q20 0 59 26t131 149.5t168 283.5l153 325q17 6 38 6
q29 0 71 -6zM839 963q0 -19 -16 -19q-12 0 -38.5 26.5t-119 128t-112.5 130t-20 62.5q0 22 17 38t44 16q38 0 75.5 -41t103.5 -187t66 -154z" />
    <glyph glyph-name="uacute" unicode="&#xfa;" horiz-adv-x="960" 
d="M998 841q-16 -51 -67 -187q-174 -456 -174 -559q0 -14 6 -21t18 -7q31 0 84 53q52 53 83 101q23 37 40 37q16 0 16 -16q0 -41 -107.5 -150.5t-189.5 -109.5q-35 0 -52.5 24.5t-17.5 73.5q0 99 42 239q-219 -336 -371 -336q-38 0 -67.5 32.5t-29.5 76.5t11 89.5t82 258.5
t86 249q18 43 18 74q0 11 -5 16.5t-16 5.5q-43 0 -157 -135q-44 -53 -57 -53q-14 0 -14 14q0 35 104.5 138.5t183.5 103.5q37 0 64.5 -30t27.5 -69q0 -57 -65 -217q-132 -326 -132 -429q0 -19 10.5 -35t25.5 -16q20 0 59 26t131 149.5t168 283.5l153 325q17 6 38 6
q29 0 71 -6zM917 1285q21 0 40.5 -15t19.5 -38q0 -40 -46.5 -79.5t-187 -124t-156.5 -84.5t-16 14q0 12 102 126.5t149 157.5t95 43z" />
    <glyph glyph-name="ucircumflex" unicode="&#xfb;" horiz-adv-x="960" 
d="M998 841q-16 -51 -67 -187q-174 -456 -174 -559q0 -14 6 -21t18 -7q31 0 84 53q52 53 83 101q23 37 40 37q16 0 16 -16q0 -41 -107.5 -150.5t-189.5 -109.5q-35 0 -52.5 24.5t-17.5 73.5q0 99 42 239q-219 -336 -371 -336q-38 0 -67.5 32.5t-29.5 76.5t11 89.5t82 258.5
t86 249q18 43 18 74q0 11 -5 16.5t-16 5.5q-43 0 -157 -135q-44 -53 -57 -53q-14 0 -14 14q0 35 104.5 138.5t183.5 103.5q37 0 64.5 -30t27.5 -69q0 -57 -65 -217q-132 -326 -132 -429q0 -19 10.5 -35t25.5 -16q20 0 59 26t131 149.5t168 283.5l153 325q17 6 38 6
q29 0 71 -6zM694 1327h110l124 -361q0 -23 -19 -23t-52 54q-36 60 -127 176q-173 -121 -250 -195q-33 -31 -50 -31q-18 0 -18 15t282 365z" />
    <glyph glyph-name="udieresis" unicode="&#xfc;" horiz-adv-x="960" 
d="M998 841q-16 -51 -67 -187q-174 -456 -174 -559q0 -14 6 -21t18 -7q31 0 84 53q52 53 83 101q23 37 40 37q16 0 16 -16q0 -41 -107.5 -150.5t-189.5 -109.5q-35 0 -52.5 24.5t-17.5 73.5q0 99 42 239q-219 -336 -371 -336q-38 0 -67.5 32.5t-29.5 76.5t11 89.5t82 258.5
t86 249q18 43 18 74q0 11 -5 16.5t-16 5.5q-43 0 -157 -135q-44 -53 -57 -53q-14 0 -14 14q0 35 104.5 138.5t183.5 103.5q37 0 64.5 -30t27.5 -69q0 -57 -65 -217q-132 -326 -132 -429q0 -19 10.5 -35t25.5 -16q20 0 59 26t131 149.5t168 283.5l153 325q17 6 38 6
q29 0 71 -6zM880 1142q35 0 61 -25t26 -63q0 -36 -25.5 -61.5t-61.5 -25.5q-37 0 -62.5 25.5t-25.5 61.5q0 37 26 62.5t62 25.5zM528 1140q36 0 61.5 -25.5t25.5 -61.5t-25.5 -61.5t-61.5 -25.5t-61.5 25.5t-25.5 61.5q0 38 26 62.5t61 24.5z" />
    <glyph glyph-name="yacute" unicode="&#xfd;" horiz-adv-x="768" 
d="M540 118q76 114 140 268.5t64 238.5q0 49 -17 109q-9 31 -9 45q0 76 61 76q26 0 43.5 -23t17.5 -54q0 -81 -58 -252.5t-188.5 -406t-265.5 -393t-217 -210t-141 -51.5q-54 0 -91 32t-37 87q0 40 22 68t59 28q66 0 68 -88q1 -53 42 -53q116 0 401 407q-27 264 -62.5 499.5
t-52 273t-39.5 37.5q-47 0 -117 -154q-31 -68 -50 -68q-17 0 -17 16t12 40l55 108q29 57 59 93t61 53t56 17q61 0 90 -82t70 -388q28 -213 41 -273zM821 1285q21 0 40.5 -15t19.5 -38q0 -40 -46.5 -79.5t-187 -124t-156.5 -84.5t-16 14q0 12 102 126.5t149 157.5t95 43z" />
    <glyph glyph-name="thorn" unicode="&#xfe;" horiz-adv-x="896" 
d="M738 1346q-70 -174 -165 -505q28 6 53 6q161 0 231.5 -87t70.5 -222q0 -205 -157 -343t-472 -210q-36 -88 -79 -231.5t-43 -174.5q0 -35 33 -59.5t71 -26.5q51 -3 51 -20q0 -16 -28 -16q-57 0 -96 3q-97 5 -116 5q-150 0 -195 -4q-22 -2 -35 -2q-21 0 -21 18q0 16 26 17
q83 6 115 28t69 107t61 160l309 954q-152 -80 -265 -216q-28 -34 -38 -34q-15 0 -15 15q0 25 109 132t223 159l109 358q25 82 25 109q0 35 -110 51q-46 7 -46 23q0 17 25 17q7 0 21 -1q120 -10 279 -10zM320 50q189 2 327.5 140.5t138.5 339.5q0 114 -50 187t-132 73
q-18 0 -46 -6z" />
    <glyph glyph-name="ydieresis" unicode="&#xff;" horiz-adv-x="768" 
d="M540 118q76 114 140 268.5t64 238.5q0 49 -17 109q-9 31 -9 45q0 76 61 76q26 0 43.5 -23t17.5 -54q0 -81 -58 -252.5t-188.5 -406t-265.5 -393t-217 -210t-141 -51.5q-54 0 -91 32t-37 87q0 40 22 68t59 28q66 0 68 -88q1 -53 42 -53q116 0 401 407q-27 264 -62.5 499.5
t-52 273t-39.5 37.5q-47 0 -117 -154q-31 -68 -50 -68q-17 0 -17 16t12 40l55 108q29 57 59 93t61 53t56 17q61 0 90 -82t70 -388q28 -213 41 -273zM784 1142q35 0 61 -25t26 -63q0 -36 -25.5 -61.5t-61.5 -25.5q-37 0 -62.5 25.5t-25.5 61.5q0 37 26 62.5t62 25.5z
M432 1140q36 0 61.5 -25.5t25.5 -61.5t-25.5 -61.5t-61.5 -25.5t-61.5 25.5t-25.5 61.5q0 38 26 62.5t61 24.5z" />
    <glyph glyph-name="dotlessi" unicode="&#x131;" horiz-adv-x="576" 
d="M315 61q0 -17 7.5 -25.5t21.5 -8.5q31 0 86 35t105 87q22 23 35 23q18 0 18 -16q0 -35 -101 -107.5t-187 -72.5q-55 0 -83.5 22.5t-28.5 52.5q0 45 111 315q141 340 141 386q0 18 -6.5 26.5t-20.5 8.5q-43 0 -138 -92q-37 -36 -52 -36q-14 0 -14 16q0 26 105 106.5
t187 80.5q34 0 58.5 -25.5t24.5 -54.5q0 -36 -12.5 -71t-149.5 -360q-107 -273 -107 -290z" />
    <glyph glyph-name="OE" unicode="&#x152;" horiz-adv-x="2176" 
d="M1578 1231q-62 -199 -151 -549q53 -4 93 -4q137 0 207.5 55t111.5 172q11 31 23 31q20 0 20 -22q0 -9 -4 -19q-46 -124 -116 -493q-17 -86 -21.5 -101t-16.5 -15q-19 0 -19 22q0 13 5 38q6 26 6 69q0 87 -37 154.5t-165 67.5q-47 0 -103 -4q-16 -53 -42 -176
q-17 -81 -34 -149t-17 -109q0 -80 61.5 -119t225.5 -39q172 0 247.5 25.5t157 110t108.5 126.5q32 48 48 48q18 0 18 -17q0 -9 -23 -52l-39 -85l-90 -189q-635 -9 -647 -9q-394 0 -526 -9q-147 -10 -212 -10q-175 0 -299 105t-124 307q0 155 61 306.5t176 280t234.5 193.5
t207.5 80t248 17l891 30q32 0 100 -2q10 -25 54 -291q2 -8 2 -15q0 -21 -17 -21q-11 0 -23 24q-66 126 -126.5 190.5t-184.5 64.5q-130 0 -269 -18zM434 355q0 -116 52.5 -222.5t207.5 -106.5q125 0 225.5 62t170 190.5t128.5 300.5t59 367q0 92 -48 186.5t-173 94.5
q-294 0 -458 -300.5t-164 -571.5z" />
    <glyph glyph-name="oe" unicode="&#x153;" horiz-adv-x="1280" 
d="M653 143q-141 -168 -299 -168q-107 0 -159.5 67t-52.5 159q0 137 85.5 294t218.5 259.5t267 102.5q97 0 135 -56t51 -174q132 148 206.5 189.5t149.5 41.5q59 0 95 -31.5t36 -73.5q0 -111 -133 -202.5t-400 -163.5q-58 -145 -58 -229q0 -62 22 -93.5t66 -31.5
q58 0 138.5 38t143.5 95q29 27 43 27q20 0 20 -19q0 -16 -54 -59t-150 -90t-195 -47q-81 0 -125 41.5t-51 123.5zM275 225q0 -95 33 -147.5t86 -52.5q79 0 165 87.5t149.5 267t63.5 277.5q0 76 -24.5 114t-74.5 38q-82 0 -182.5 -78t-158 -224t-57.5 -282zM874 439
q256 74 314.5 151t58.5 148q0 32 -13 47.5t-39 15.5q-71 0 -181 -118.5t-140 -243.5z" />
    <glyph glyph-name="Scaron" unicode="&#x160;" horiz-adv-x="1131" 
d="M286 137q-72 -37 -118 -84q-51 -50 -61 -50q-14 0 -14 11l3 9q29 47 68 161q114 334 149 334q17 0 17 -16t-9 -42q-15 -44 -15 -93q0 -144 105 -244t244 -100q107 0 171 63t64 147q0 90 -52.5 170.5t-238.5 271.5q-105 109 -134 173.5t-29 133.5q0 156 111 252t275 96
q174 0 282 -137q24 -31 32 -31q22 0 53 64q14 29 28 29q16 0 16 -18q0 -13 -5 -30q-17 -55 -49 -200q-34 -139 -42 -163t-24 -24q-17 0 -17 23q0 8 2 18q5 36 5 70q0 150 -75.5 253.5t-207.5 103.5q-89 0 -154 -55.5t-65 -143.5q0 -53 19.5 -101.5t47 -84.5t130.5 -143
q151 -157 204.5 -241t53.5 -173q0 -144 -106.5 -254t-284.5 -110q-226 0 -379 155zM903 1384h-106q-119 354 -119 362q0 19 15 19t49 -49q39 -57 128 -177l212 163q80 62 92 62q15 0 15 -15q0 -13 -59.5 -84t-226.5 -281z" />
    <glyph glyph-name="scaron" unicode="&#x161;" horiz-adv-x="640" 
d="M615 265q0 -118 -85 -204t-200 -86q-99 0 -154.5 53t-55.5 99q0 30 22 58t58 28q33 0 52.5 -20t19.5 -48q0 -15 -9 -37q-9 -23 -9 -34q0 -26 22.5 -39.5t67.5 -13.5q75 0 116.5 42.5t41.5 103.5q0 60 -79 166q-127 171 -127 276q0 93 71 173t174 80q73 0 128.5 -41
t55.5 -90q0 -32 -21.5 -55.5t-50.5 -23.5q-56 0 -56 59l1 54q0 22 -26 38q-27 15 -56 15q-45 0 -84 -31t-39 -90q0 -61 113 -204q109 -138 109 -228zM587 945h-106q-119 354 -119 362q0 19 15 19t49 -49q39 -57 128 -177l212 163q80 62 92 62q15 0 15 -15q0 -13 -59.5 -84
t-226.5 -281z" />
    <glyph glyph-name="Ydieresis" unicode="&#x178;" horiz-adv-x="1429" 
d="M887 704l112 207q63 115 149 215t179.5 152t180.5 52q61 0 99.5 -43t38.5 -91q0 -43 -26.5 -80.5t-77.5 -37.5q-35 0 -54.5 18.5t-59.5 95.5q-22 43 -57 43q-72 0 -201 -152t-268 -468t-139 -462q0 -61 39 -93t102 -33q66 0 76 -4t10 -15q0 -18 -39 -18l-393 10
q-90 0 -168 -6q-48 -4 -79 -4q-32 0 -32 21q0 11 10 14t61 5q107 3 171 75.5t151 391t87 481.5q0 133 -44.5 197t-106.5 64q-60 0 -120 -38.5t-91.5 -88.5t-60.5 -143l-20 -63q-5 -14 -17 -14q-17 0 -17 18q0 60 52 172t142.5 174t178.5 62q99 0 174.5 -94.5t75.5 -265.5
q0 -133 -18 -254zM1228 1623q35 0 61 -25t26 -63q0 -36 -25.5 -61.5t-61.5 -25.5q-37 0 -62.5 25.5t-25.5 61.5q0 37 26 62.5t62 25.5zM876 1621q36 0 61.5 -25.5t25.5 -61.5t-25.5 -61.5t-61.5 -25.5t-61.5 25.5t-25.5 61.5q0 38 26 62.5t61 24.5z" />
    <glyph glyph-name="florin" unicode="&#x192;" horiz-adv-x="1451" 
d="M1156 771l-222 -787q-80 -273 -200.5 -400.5t-272.5 -127.5q-91 0 -150.5 48.5t-59.5 115.5q0 44 27 75t66 31q34 0 58 -21.5t24 -51.5q0 -18 -12 -44q-14 -31 -14 -47q0 -23 22.5 -42.5t59.5 -19.5q138 0 237.5 236.5t233.5 769.5q53 210 69 262l-211 -5l13 56
q80 6 214 8q67 273 189 406t279 133q92 0 144 -48t52 -110q0 -36 -24 -64.5t-63 -28.5q-32 0 -55.5 20.5t-23.5 51.5q0 22 23 55q15 20 15 36q0 23 -17.5 34.5t-53.5 11.5q-97 0 -174 -96.5t-154 -388.5q15 -4 190 -4q-2 -10 -5 -28q-2 -19 -5 -31q-100 -2 -199 -5z" />
    <glyph glyph-name="circumflex" unicode="&#x2c6;" 
d="M580 1327h110l124 -361q0 -23 -19 -23t-52 54q-36 60 -127 176q-173 -121 -250 -195q-33 -31 -50 -31q-18 0 -18 15t282 365z" />
    <glyph glyph-name="caron" unicode="&#x2c7;" 
d="M608 945h-106q-119 354 -119 362q0 19 15 19t49 -49q39 -57 128 -177l212 163q80 62 92 62q15 0 15 -15q0 -13 -59.5 -84t-226.5 -281z" />
    <glyph glyph-name="macron" unicode="&#x2c9;" 
d="M255 1069h594v-90h-594v90z" />
    <glyph glyph-name="breve" unicode="&#x2d8;" 
d="M547 1069q80 0 139.5 38t87.5 77q28 37 41 37q21 0 21 -21q0 -42 -78 -143t-213 -101q-106 0 -168 70t-62 165q0 28 19 28q11 0 18 -17q55 -133 195 -133z" />
    <glyph glyph-name="dotaccent" unicode="&#x2d9;" 
d="M564 1140q36 0 61.5 -25.5t25.5 -61.5t-25.5 -61.5t-61.5 -25.5t-61.5 25.5t-25.5 61.5q0 38 26 62.5t61 24.5z" />
    <glyph glyph-name="ring" unicode="&#x2da;" 
d="M588 1261q62 0 107.5 -44t45.5 -109q0 -64 -44.5 -108.5t-108.5 -44.5q-63 0 -108 45t-45 108q0 65 45.5 109t107.5 44zM591 1199q-37 0 -63.5 -26.5t-26.5 -63.5t26.5 -64t63.5 -27t64 26.5t27 64.5q0 39 -27 64.5t-64 25.5z" />
    <glyph glyph-name="ogonek" unicode="&#x2db;" 
d="M322 22h60q-125 -146 -125 -230q0 -47 33.5 -78t91.5 -31q29 0 59 14q12 5 21 5q17 0 17 -16q0 -17 -61 -53.5t-130 -36.5q-67 0 -112.5 36.5t-45.5 91.5q0 121 192 298z" />
    <glyph glyph-name="tilde" unicode="&#x2dc;" 
d="M676 1080q53 0 95 56q20 26 34 26q19 0 19 -19t-32 -78t-75 -83t-80 -24q-41 0 -122 49q-61 36 -102 36q-58 0 -86 -58q-13 -27 -30 -27q-19 0 -19 20q0 26 51.5 105.5t129.5 79.5q44 0 106 -41q64 -42 111 -42z" />
    <glyph glyph-name="hungarumlaut" unicode="&#x2dd;" 
d="M628 1285q21 0 40.5 -15t19.5 -38q0 -40 -46.5 -79.5t-187 -124t-156.5 -84.5t-16 14q0 12 102 126.5t149 157.5t95 43zM989 1285q22 0 41.5 -15t19.5 -38q0 -40 -46.5 -79.5t-187 -124t-156.5 -84.5t-16 14q0 12 102 126.5t149 157.5t94 43z" />
    <glyph glyph-name="pi" unicode="&#x3c0;" horiz-adv-x="1124" 
d="M1097 916v-146h-232q-39 -236 -39 -459q0 -93 37 -132.5t88 -39.5q98 0 110 111h36q-18 -145 -74.5 -211.5t-131.5 -66.5q-72 0 -123.5 67.5t-51.5 279.5q0 195 38 451h-235l-17 -245q-9 -129 -34.5 -275t-49 -196t-46.5 -66t-47 -16q-38 0 -64 24t-26 59q0 30 8.5 49.5
t56.5 85.5q52 71 70 168.5t38 411.5h-29q-67 0 -111.5 -27t-96.5 -114h-36q30 113 78 180.5t96.5 87t149.5 19.5h638z" />
    <glyph glyph-name="endash" unicode="&#x2013;" horiz-adv-x="1024" 
d="M84 558h1048v-92h-1048v92z" />
    <glyph glyph-name="emdash" unicode="&#x2014;" horiz-adv-x="2048" 
d="M84 558h2072v-92h-2072v92z" />
    <glyph glyph-name="quoteleft" unicode="&#x2018;" horiz-adv-x="512" 
d="M359 1047q0 89 113.5 186.5t160.5 97.5q20 0 20 -15t-13 -24t-59 -38q-33 -21 -73.5 -70.5t-40.5 -74.5q0 -17 28 -29q66 -27 66 -85q0 -29 -22 -54t-63 -25q-50 0 -83.5 39t-33.5 92z" />
    <glyph glyph-name="quoteright" unicode="&#x2019;" horiz-adv-x="512" 
d="M609 1212q0 -118 -115.5 -205.5t-154.5 -87.5q-17 0 -17 18q0 12 40 37q71 44 106 88q34 44 34 68q0 17 -35 35q-60 31 -60 87q0 29 22.5 53.5t61.5 24.5q54 0 86 -41t32 -77z" />
    <glyph glyph-name="quotesinglbase" unicode="&#x201a;" horiz-adv-x="384" 
d="M208 -26q-136 0 -136 107q0 49 33.5 76.5t74.5 27.5q63 0 100 -53.5t37 -124.5q0 -144 -107 -241.5t-158 -97.5q-19 0 -19 20q0 12 19 22q163 86 163 211q0 11 -1.5 24t-5.5 29z" />
    <glyph glyph-name="quotedblleft" unicode="&#x201c;" horiz-adv-x="811" 
d="M682 1048q0 88 113.5 186t160.5 98q19 0 19 -16q0 -14 -13 -23.5t-58 -37.5q-33 -22 -73.5 -71.5t-40.5 -74.5q0 -17 28 -29q65 -27 65 -85q0 -30 -22 -54.5t-58 -24.5q-52 0 -86.5 38t-34.5 94zM383 1047q0 89 113.5 186.5t160.5 97.5q20 0 20 -15t-13 -24t-59 -38
q-33 -21 -73.5 -70.5t-40.5 -74.5q0 -17 28 -29q66 -27 66 -85q0 -30 -22 -54.5t-58 -24.5q-53 0 -87.5 38t-34.5 93z" />
    <glyph glyph-name="quotedblright" unicode="&#x201d;" horiz-adv-x="811" 
d="M932 1212q0 -118 -115.5 -205.5t-154.5 -87.5q-17 0 -17 18q0 12 39 37q85 53 113 97t28 59q0 17 -35 35q-60 32 -60 87q0 30 22.5 54t60.5 24q53 0 86 -39t33 -79zM633 1212q0 -118 -115.5 -205.5t-154.5 -87.5q-17 0 -17 18q0 12 40 37q71 44 106 88q34 44 34 68
q0 17 -35 35q-60 31 -60 87q0 31 23.5 54.5t59.5 23.5q53 0 86 -39t33 -79z" />
    <glyph glyph-name="quotedblbase" unicode="&#x201e;" horiz-adv-x="747" 
d="M631 42q0 -73 -51 -140t-127 -110t-92 -43q-17 0 -17 18q0 12 39 37q72 44 107 88q34 44 34 68q0 17 -35 35q-60 31 -60 87q0 31 23.5 54.5t59.5 23.5q53 0 86 -39t33 -79zM332 42q0 -118 -115.5 -205.5t-154.5 -87.5q-17 0 -17 18q0 12 40 37q85 52 112.5 96.5
t27.5 59.5q0 17 -35 35q-60 31 -60 87q0 31 23.5 54.5t59.5 23.5q53 0 86 -39t33 -79z" />
    <glyph glyph-name="dagger" unicode="&#x2020;" horiz-adv-x="1365" 
d="M550 -504h-38q83 362 137.5 691t54.5 394q0 40 -18 67.5t-42 27.5q-31 0 -78 -39q-88 -74 -134 -97t-105 -23q-44 0 -82 34.5t-38 88.5q0 53 36 96t78 43q28 0 43.5 -22t15.5 -49q0 -53 -63 -67q-32 -7 -32 -27q0 -21 11.5 -32t33.5 -11q45 0 102 68q108 128 183 128
q70 0 111 -80q30 -59 45 -59q18 0 18 25l-5 145q0 93 15.5 149.5t37.5 88.5t90 103q15 15 15 26q0 6 -20 26q-22 23 -22 57q0 43 30 78t77 35q43 0 66 -23.5t23 -49.5q0 -31 -22.5 -62t-51.5 -43q-29 -13 -29 -28q0 -9 23 -42q32 -46 32 -90q0 -134 -187 -370
q-11 -14 -11 -25q0 -14 13 -14q11 0 35 23q130 120 186 120q42 0 91 -76q35 -54 58 -72.5t55 -18.5q23 0 38 13.5t15 25.5q0 10 -22 16q-40 10 -40 54q0 37 26.5 61t64.5 24q29 0 46.5 -21t17.5 -45q0 -74 -71.5 -135.5t-146.5 -61.5q-64 0 -119 85q-37 56 -70 56
q-31 0 -67 -28t-79 -128t-165 -472.5t-166 -537.5z" />
    <glyph glyph-name="daggerdbl" unicode="&#x2021;" horiz-adv-x="981" 
d="M610 483h-38l33 254q18 140 36 248q-55 -31 -97 -31q-60 0 -86 63q-13 30 -24 30t-16 -22q-16 -66 -71 -66q-29 0 -44.5 19.5t-15.5 39.5q0 36 35 75t88 39q64 0 97 -57q27 -48 38 -58.5t32 -10.5q38 0 73 70q40 80 82 108q20 13 20 21l-6 11q-17 23 -17 53q0 42 29 69
t63 27q28 0 45.5 -21t17.5 -41q0 -47 -56 -79q-26 -15 -26 -25q0 -7 11 -20q26 -30 26 -61q0 -10 -1 -21q-3 -23 -3 -35q0 -19 15 -37q14 -18 36 -18t47 26q102 107 160 107q87 0 87 -75q0 -38 -26.5 -67.5t-61.5 -29.5q-46 0 -46 41q0 9 2 15l7 17q0 10 -10 10
q-13 0 -49 -36q-40 -41 -56 -50.5t-48 -9.5q-18 0 -37.5 7.5t-41.5 22.5q-109 -248 -142 -341q-46 -131 -61 -161zM541 340h32q-1 -48 -18 -168l-40 -339q49 30 78 30q63 0 79 -56q14 -47 26 -47q14 0 29 39q21 52 64 52q23 0 41 -18t18 -44q0 -41 -33 -71t-87 -30
q-74 0 -101 55q-20 40 -29.5 49.5t-29.5 9.5q-46 0 -78 -73q-19 -44 -28 -56.5t-34 -28.5q-31 -20 -31 -30l5 -11q16 -30 16 -70q0 -42 -25 -62.5t-54 -20.5q-30 0 -51 19.5t-21 47.5q0 38 42 68q30 22 30 37q0 12 -14 32q-23 32 -23 59q0 11 2 21q6 26 6 31q0 11 -12 26
q-13 15 -35 15q-35 0 -77 -54q-63 -80 -142 -80q-35 0 -58 24.5t-23 51.5q0 37 26 69t62 32q17 0 32 -12.5t15 -23.5l3 -17l-4 -9q-4 -6 -4 -11q0 -11 11 -11q10 0 31 24q60 71 131 71q20 0 36 -9.5t28 -28.5q7 18 38 82q48 99 53.5 117t117.5 319z" />
    <glyph glyph-name="bullet" unicode="&#x2022;" horiz-adv-x="725" 
d="M747 677q0 -103 -74 -177t-177 -74q-104 0 -177.5 73.5t-73.5 177.5t73.5 177.5t177.5 73.5t177.5 -73.5t73.5 -177.5z" />
    <glyph glyph-name="ellipsis" unicode="&#x2026;" horiz-adv-x="2048" 
d="M341 176q41 0 70 -29t29 -69q0 -41 -29 -70t-70 -29t-69.5 29t-28.5 70q0 42 29 70t69 28zM1024 176q40 0 69 -28.5t29 -70.5q0 -40 -28.5 -69t-69.5 -29t-69.5 29t-28.5 69q0 41 29 70t69 29zM1707 176q40 0 69 -29t29 -70q0 -40 -28.5 -69t-69.5 -29t-70 29t-29 69
q0 41 29 70t70 29z" />
    <glyph glyph-name="perthousand" unicode="&#x2030;" horiz-adv-x="2176" 
d="M1516 1336l-1239 -1363h-75l1240 1363h74zM255 927q0 114 45 202t132 147.5t189 59.5q116 0 185.5 -83.5t69.5 -200.5q0 -163 -115.5 -279.5t-246.5 -116.5q-109 0 -184 75t-75 196zM368 865q0 -71 36 -119t100 -48q92 0 173.5 132t81.5 303q0 71 -33 117t-96 46
q-116 0 -189 -143t-73 -288zM835 249q0 166 112 285t254 119q107 0 182.5 -77t75.5 -201q0 -174 -114.5 -288t-256.5 -114q-125 0 -189 87t-64 189zM951 180q0 -77 35 -120.5t95 -43.5q115 0 190 144.5t75 296.5q0 73 -40 114t-86 41q-107 0 -188 -132t-81 -300zM1547 249
q0 166 112 285t254 119q107 0 182.5 -77t75.5 -201q0 -174 -114.5 -288t-256.5 -114q-126 0 -189.5 87t-63.5 189zM1663 180q0 -77 35 -120.5t95 -43.5q115 0 189.5 144.5t74.5 296.5q0 73 -39.5 114t-85.5 41q-107 0 -188 -132t-81 -300z" />
    <glyph glyph-name="guilsinglleft" unicode="&#x2039;" horiz-adv-x="619" 
d="M162 444l431 326l41 31l22 2q27 0 27 -9l-11 -14l-311 -352l148 -357l15 -34l3 -6q0 -8 -13 -8q-23 0 -27 5t-23 29z" />
    <glyph glyph-name="guilsinglright" unicode="&#x203a;" horiz-adv-x="619" 
d="M639 382l-430 -326q-23 -18 -32 -25.5t-33 -7.5q-26 0 -26 10l12 13q8 7 34 37l276 315l-148 357l-16 37q4 11 14 11l19 -2q5 -2 28 -32z" />
    <glyph glyph-name="Euro" unicode="&#x20ac;" horiz-adv-x="1004" 
d="M311 639q81 200 234.5 324t322.5 124q121 0 204 -48t83 -136q0 -51 -29.5 -93t-74.5 -42q-27 0 -43.5 16t-16.5 41q0 33 38 77q30 34 30 54q0 44 -61.5 68.5t-137.5 24.5q-125 0 -224.5 -106.5t-162.5 -303.5h379l-27 -57h-368l-19 -82h383l-26 -58h-367q-8 -75 -8 -114
q0 -129 53.5 -217t151.5 -88q92 0 190.5 53t145.5 131q15 31 28 31q15 0 15 -15q0 -57 -122 -149t-274 -92q-79 0 -141 28.5t-104 79t-66 115.5t-27.5 105t-3.5 132h-145l26 58h125q14 59 21 82h-143l26 57h135z" />
    <glyph glyph-name="trademark" unicode="&#x2122;" horiz-adv-x="2005" 
d="M280 1290h728l22 -200h-34q-5 50 -41.5 95t-152.5 45h-75v-579q0 -84 20 -106.5t86 -25.5v-35h-374v35q55 4 77.5 20t22.5 111v580h-76q-99 0 -137.5 -32.5t-52.5 -107.5h-34zM1385 1290l273 -572l265 572h279v-36q-71 -2 -91 -25.5t-20 -109.5v-468q0 -85 19 -106.5
t92 -25.5v-35h-398v35q74 2 96.5 26t22.5 104v493l-307 -658h-32l-308 649v-483q0 -76 17.5 -103.5t75.5 -27.5h36v-35h-306v35q68 0 90.5 20t22.5 111v466q0 90 -19.5 114t-93.5 24v36h286z" />
    <glyph glyph-name="Omega" unicode="&#x2126;" horiz-adv-x="1573" 
d="M183 313h36q3 -54 33.5 -90.5t129.5 -36.5h270v67q-166 32 -300 178.5t-134 365.5q0 243 184.5 416.5t484.5 173.5q200 0 344.5 -76t231.5 -202.5t87 -308.5q0 -208 -119 -351t-317 -196v-67h275q80 0 116 28.5t42 98.5h36v-313h-559l22 302q258 82 258 477
q0 258 -126 395.5t-296 137.5q-175 0 -297 -140.5t-122 -378.5q0 -404 256 -491l23 -302h-559v313z" />
    <glyph glyph-name="partialdiff" unicode="&#x2202;" horiz-adv-x="1003" 
d="M925 717q12 108 12 187q0 178 -94 277t-252 99q-99 0 -174.5 -39.5t-126.5 -119.5h-46q68 151 163.5 226t217.5 75q152 0 259 -120.5t107 -382.5q0 -360 -166 -655t-426 -295q-134 0 -236.5 80t-102.5 255q0 238 166 421t386 183q102 0 188 -52.5t125 -138.5zM908 628
q-37 104 -112 164.5t-175 60.5q-94 0 -185.5 -68.5t-149 -229t-57.5 -292.5q0 -108 52 -172.5t143 -64.5q136 0 279.5 163.5t204.5 438.5z" />
    <glyph glyph-name="Delta" unicode="&#x2206;" horiz-adv-x="1259" 
d="M1229 0h-1200l628 1387zM993 82l-399 967l-440 -967h839z" />
    <glyph glyph-name="product" unicode="&#x220f;" horiz-adv-x="1685" 
d="M1372 1438h-795v-1449q0 -85 39 -120t123 -35h36v-38h-597v38h35q87 0 125 36t38 119v1334q0 85 -38 120t-125 35h-35v38h1594v-38h-35q-86 0 -124 -35.5t-38 -119.5v-1334q0 -85 39 -120t123 -35h35v-38h-597v38h35q93 0 127.5 37.5t34.5 117.5v1449z" />
    <glyph glyph-name="summation" unicode="&#x2211;" horiz-adv-x="1451" 
d="M1484 -204h-1313v36l669 831l-669 817v37h1278l27 -337h-40q-27 256 -249 256h-740l562 -687l-629 -777h818q55 0 131 20.5t116 73.5t63 152l40 -7z" />
    <glyph glyph-name="fraction" unicode="&#x2215;" horiz-adv-x="0" 
d="M537 1362h64l-846 -1382h-66z" />
    <glyph glyph-name="periodcentered" unicode="&#x2219;" horiz-adv-x="363" 
d="M293 633q41 0 70.5 -28.5t29.5 -71.5q0 -41 -29 -70t-71 -29q-41 0 -70 29t-29 70q0 42 29 71t70 29z" />
    <glyph glyph-name="radical" unicode="&#x221a;" horiz-adv-x="1131" 
d="M1053 1869h74l-312 -1947l-496 1021l-198 -91l-34 64l301 151l405 -823z" />
    <glyph glyph-name="infinity" unicode="&#x221e;" horiz-adv-x="1451" 
d="M770 671q70 169 158 223t212 54q167 0 275 -119t108 -298q0 -123 -49 -216t-132.5 -148.5t-167.5 -55.5q-79 0 -155 49.5t-182 236.5q-113 -233 -324 -233q-108 0 -182 52t-117.5 127.5t-43.5 189.5q0 162 91 264.5t216 102.5q95 0 159 -49.5t134 -179.5zM866 468
q66 -138 136 -200.5t176 -62.5q135 0 211.5 95.5t76.5 230.5q0 145 -86.5 242t-195.5 97q-85 0 -150 -58t-168 -344zM741 594q-90 214 -267 214q-102 0 -175.5 -72.5t-73.5 -201.5q0 -137 72.5 -214.5t157.5 -77.5q68 0 139 56.5t147 295.5z" />
    <glyph glyph-name="integral" unicode="&#x222b;" horiz-adv-x="555" 
d="M318 895l12 445q9 344 75 433.5t148 89.5q53 0 89 -34.5t36 -72.5q0 -44 -25.5 -74t-66.5 -30q-35 0 -76 36q-23 20 -40 20q-40 0 -40 -63q0 -42 9 -146q37 -411 37 -665q0 -68 -12 -470.5t-77 -493t-151 -90.5q-49 0 -83.5 32.5t-34.5 88.5q0 45 26 72t64 27
q40 0 70 -33q28 -31 48 -31t29.5 15.5t9.5 45.5q0 42 -9 120q-38 317 -38 778z" />
    <glyph glyph-name="approxequal" unicode="&#x2248;" horiz-adv-x="1365" 
d="M1293 911h43q-3 -126 -72.5 -200t-169.5 -74q-50 0 -106 17.5t-267 104.5q-156 63 -222 63q-149 0 -185 -183h-43q4 138 76 206t156 68q91 0 380 -124q153 -65 223 -65q76 0 127.5 49t59.5 138zM1293 419h43q-3 -125 -72.5 -199.5t-169.5 -74.5q-50 0 -106 18t-267 104
q-156 64 -222 64q-149 0 -185 -183h-43q4 137 76 205t156 68q91 0 380 -123q153 -66 221 -66q86 0 133 52.5t56 134.5z" />
    <glyph glyph-name="notequal" unicode="&#x2260;" horiz-adv-x="1365" 
d="M267 807h602l210 533h74l-204 -533h390v-88h-426l-146 -375h572v-88h-606l-211 -531h-75l210 531h-390v88h423l147 375h-570v88z" />
    <glyph glyph-name="lessequal" unicode="&#x2264;" horiz-adv-x="1365" 
d="M1338 177l-1071 455v78l1071 453v-96l-955 -396l955 -398v-96zM266 88h1074v-88h-1074v88z" />
    <glyph glyph-name="greaterequal" unicode="&#x2265;" horiz-adv-x="1365" 
d="M267 1163l1071 -455v-79l-1071 -452v96l955 396l-955 398v96zM266 88h1074v-88h-1074v88z" />
    <glyph glyph-name="lozenge" unicode="&#x25ca;" horiz-adv-x="1012" 
d="M682 1422l418 -713l-418 -709h-111l-391 709l391 713h111zM628 1325l-340 -616l340 -615l359 615z" />
    <glyph glyph-name="apple" unicode="&#xf000;" horiz-adv-x="1621" 
d="M1156 1596q1 -37 1 -62q0 -72 -26 -128.5t-79.5 -102t-95 -66.5t-126.5 -27q-2 22 -2 32q0 64 45 150.5t110.5 131.5t172.5 72zM1456 1063q-189 -123 -189 -333q0 -216 232 -332q-114 -248 -208 -338.5t-203 -90.5q-50 0 -128 30q-75 29 -117 29q-51 0 -127 -29
q-79 -30 -123 -30q-172 0 -323 253.5t-151 513.5q0 206 117.5 344t335.5 138q73 0 145 -31q74 -32 120 -32q41 0 122 34q73 30 151 30q212 0 346 -156z" />
    <glyph glyph-name="fi" unicode="&#xf001;" horiz-adv-x="1045" 
d="M556 833l475 3q-29 -108 -79 -259l-108 -329q-45 -125 -45 -161q0 -28 13 -42.5t38 -14.5q91 0 186 117q40 49 55 49q16 0 16 -16q0 -32 -93 -116.5t-211 -84.5q-58 0 -87.5 25t-29.5 75q0 78 59 257l143 431l-174 1q-59 0 -175 -1q-216 -785 -285 -953t-178 -263
t-236 -95q-97 0 -153.5 51t-56.5 114q0 48 28.5 75t73.5 27q71 0 71 -66q0 -21 -12 -51q-12 -26 -12 -41q0 -33 21 -49.5t63 -16.5q74 0 158 94t208.5 533.5t172.5 640.5q-98 -2 -207 -6q5 31 15 59q109 5 208 6q141 538 493 538q90 0 163 -43t73 -110q0 -41 -28 -61.5
t-57 -20.5q-26 0 -46 16t-20 38q0 10 3 33q2 14 2 26q0 81 -95 81q-131 0 -212 -130.5t-138 -359.5z" />
    <glyph glyph-name="fl" unicode="&#xf002;" horiz-adv-x="1045" 
d="M1163 1362q-15 -72 -128 -429q-93 -291 -172 -576t-79 -305q0 -17 16 -17q19 0 91.5 55t133.5 141q22 32 37 32q17 0 17 -20q0 -33 -114.5 -149.5t-216.5 -116.5q-33 0 -55.5 28.5t-22.5 72.5q0 99 109 444l68 221l2 11l3 9q0 10 -18 10l-298 -5l-205 -728
q-91 -324 -216 -454t-280 -130q-82 0 -143 47t-61 112q0 48 26 78.5t70 30.5q37 0 57.5 -20.5t20.5 -50.5q0 -15 -11 -42q-12 -31 -12 -48q0 -31 21.5 -46.5t64.5 -15.5q79 0 165 107.5t219 602.5l147 553h-206q5 28 15 57l208 8q143 534 462 534q39 0 84 -3q54 -3 74 -3
q50 0 127 5zM872 838q35 86 70.5 216t35.5 167q0 38 -24.5 70t-73.5 32q-66 0 -134 -58.5t-127 -219.5t-64 -209z" />
    </font>
</defs>
</svg>
